Welcome Guest ( Log In | Register )

> 

Здесь релизы с живыми прямыми ссылками на lossless

> Laconist - Anticosmic Trance (2016), Death Metal (D)
post Jul 27 2016, 09:12:30
Post #1

Время Мары
**************
Group: Металариец
Posts: 3,239
Releases: 471
From: Харьков
On Forums: 12 years 2 weeks
Thanks: 9660 time(s)
Ukraine


(IMG:http://metalarea.org/images/audiocovers/2016_Jul/acov_tid271334_thumb.jpg)

*Artist: Laconist
*Album: Anticosmic Trance
*Year: 2016
*Genre: Death Metal
*Country: Brazil (IMG:http://metalarea.org/forum/style_images/flags/Brazil.png)
*Format: mp3@CBR320kbps
*Size: 91MB

Tracklist:
1. Rozpierdol Kurwa Mać
2. Enochian Despise
3. Evangelical Eradication
4. Pentateuch Disarrays
5. The Catechist
6. Tephras
7. Elevated Into The Brilliance Of Darkness
8. The Oneness Of The Self
9. Anticosmic Trance
******************************
Total playing time: 43:29

Technical info
(IMG:http://metalarea.org/images/spectrogram/2016_Jul/29626d8dbd2c7f26f36de4793120913f.png)
Input File: 07. Elevated Into The Brilliance Of Darkness.mp3
Channels : 2
Sample Rate : 44100
Precision : 16-bit
Duration : 00:06:23.17 = 16897665 samples = 28737.5 CDDA sectors
File Size : 15.3M
Bit Rate : 320k
Sample Encoding: MPEG audio (layer I, II or III)
Comments :
Title=Elevated Into The Brilliance Of Darkness
Artist=Laconist
Album=Anticosmic Trance
Tracknumber=7
Year=2016



Register


Go to the top of the page
  Insert nick Quick quote
+Quote Post
 
Start new topic
Replies (1 - 8)
post Jul 27 2016, 13:28:54
Post #2

ухо-горло-нос
********
Group: Металариец
Posts: 806
Releases: 0
From: Севастополь
On Forums: 10 years 9 months
Thanks: 378 time(s)
Russian Federation




Thanks:
(1) RENыч,
Go to the top of the page
  Insert nick Quick quote
+Quote Post
post Jul 27 2016, 21:14:59
Post #3

Сектант технодро4чер
**************
Group: Металариец
Posts: 5,581
Releases: 143
From: Тимчасово окупована територія
On Forums: 12 years 10 months
Thanks: 5952 time(s)
Ukraine


Че не в лоу? (IMG:style_emoticons/default/13.gif)
Go to the top of the page
  Insert nick Quick quote
+Quote Post
post Oct 1 2016, 19:19:44
Post #4

Black is beautiful
***********
Group: Металариец
Posts: 1,858
Releases: 4
On Forums: 9 years 3 months
Thanks: 382 time(s)
Unknown


Very good Death Metal.
Deep from the grave.
(IMG:style_emoticons/default/20.gif)
Go to the top of the page
  Insert nick Quick quote
+Quote Post
post Oct 1 2016, 19:23:12
Post #5

И Ван Дамм По Делам Вашим!
**************
Group: Металариец
Posts: 19,994
Releases: 26
On Forums: 12 years 11 months
Thanks: 11276 time(s)
Honduras


Rozpierdol Kurwa Mać даже подумать страшно о чем песня. (IMG:style_emoticons/default/1488.gif)
Go to the top of the page
  Insert nick Quick quote
+Quote Post
post Oct 16 2019, 02:32:25
Post #6

Правь статус, ####!111
**************
Group: Металариец
Posts: 7,377
Releases: 165
From: URUGUAY
On Forums: 14 years 8 months
Thanks: 21805 time(s)
Uruguay


320
Register


Thanks:
Go to the top of the page
  Insert nick Quick quote
+Quote Post
post Apr 22 2021, 20:35:45
Post #7

Три Литра
***
Group: Завсегдатай
Posts: 213
Releases: 0
On Forums: 1 year 1 month
Thanks: 7 time(s)
Portugal



Possible CD FLAC?

Thanks
Go to the top of the page
  Insert nick Quick quote
+Quote Post
post Apr 23 2021, 16:00:42
Post #8

Правь статус, ####!111
**************
Group: Металариец
Posts: 7,377
Releases: 165
From: URUGUAY
On Forums: 14 years 8 months
Thanks: 21805 time(s)
Uruguay


Flac tracks
Register


Thanks:
(1) Masteruk,
Go to the top of the page
  Insert nick Quick quote
+Quote Post
post Apr 23 2021, 17:27:07
Post #9

Три Литра
***
Group: Завсегдатай
Posts: 213
Releases: 0
On Forums: 1 year 1 month
Thanks: 7 time(s)
Portugal


QUOTE(frostdomain @ Apr 23 2021, 16:00:42) *
Flac tracks


Thanks Frostdomain. (IMG:style_emoticons/default/pray.gif)
Go to the top of the page
  Insert nick Quick quote
+Quote Post

Reply to this topicStart new topic
2 User(s) are reading this topic (2 Guests and 0 Anonymous Users)
0 Members:

 



- Lo-Fi Version Support form
Copyrights and abuse reports form
Time is now: 22nd June 2021 - 03:32:35