Welcome Guest ( Log In | Register )

Объявления

* gmail.com упорно продолжает считать почту с нас "unsolicited" и отбивает в том числе и письма активации, поэтому просьба использовать альтернативные почтовые ящики.
------------
* gmail.com continues reject all mail from us as "unsolicited" (activation mails too) therefore please use alternate mail servers.
> Timor Et Tremor - For Cold Shades (2016), Pagan/Black Metal
post Aug 4 2016, 11:18:02
Post #1

Serial Uploader
Group Icon
Group: V.I.P
Posts: 42,638
Releases: 40702
From: Lithuania
On Forums: 15 years 11 months
Thanks: 521631 time(s)
Lithuania


(IMG:http://metalarea.org/images/audiocovers/2016_Aug/acov_tid271736_thumb.jpg)

*Artist: Timor Et Tremor
*Album: For Cold Shades
*Year: 2016
*Genre: Pagan/Black Metal
*Country: Germany (IMG:http://metalarea.org/forum/style_images/flags/Germany.png)
*Format: mp3@CBR320kbps
*Size: 101MB

Tracklist:
01. Yearning 03:03
02. Fen Fire 05:55
03. Alpha And Omega 05:23
04. Oath Of Life 06:31
05. The Ghost In All That Dies 05:12
06. The Soaring Grudge 05:01
07. Ethereal Dome 05:49
08. Pale Faces 07:15
******************************
Total playing time: 44:09

(IMG:http://metalarea.org/images/myspace.png)

(IMG:http://metalarea.org/images/youtube.png)

Technical info
(IMG:http://metalarea.org/images/spectrogram/2016_Aug/999bb746afd2108090b94093328d86a9.png)
Input File: 02. Fen Fire.mp3
Channels : 2
Sample Rate : 44100
Precision : 16-bit
Duration : 00:05:55.59 = 15681475 samples = 26669.2 CDDA sectors
File Size : 14.3M
Bit Rate : 321k
Sample Encoding: MPEG audio (layer I, II or III)
Comments :
Title=Fen Fire
Artist=Timor Et Tremor
Album=For Cold Shades
Tracknumber=2
Year=2016



Register


Go to the top of the page
  Insert nick Quick quote
+Quote Post
 
Start new topic
Replies (1 - 4)
post Aug 5 2016, 13:04:40
Post #2

Шесть Литров
******
Group: Металариец
Posts: 555
Releases: 0
On Forums: 7 years 10 months
Thanks: 68 time(s)
Unknown


Very good!
THX for upload.
(IMG:style_emoticons/default/9.gif)
Go to the top of the page
  Insert nick Quick quote
+Quote Post
post Sep 24 2016, 20:59:41
Post #3

Black is beautiful
***********
Group: Металариец
Posts: 1,986
Releases: 4
On Forums: 12 years 3 months
Thanks: 445 time(s)
Unknown


Some weeks after buying the CD I must say:
Very horny. Best Pagan Black Metal.
I have mixed the original CD with Equalizer APO for my needs. Very nights with many beer are saved with this good metal.
(IMG:style_emoticons/default/pray.gif) (IMG:style_emoticons/default/20.gif) (IMG:style_emoticons/default/pray.gif)
Go to the top of the page
  Insert nick Quick quote
+Quote Post
post Apr 22 2022, 22:51:20
Post #4

Мегаманьяк
***********
Group: Металариец
Posts: 1,839
Releases: 10
On Forums: 15 years 4 months
Thanks: 185 time(s)
Germany


Please, re-upload.


Thanks:
(1) Kwaad,
Go to the top of the page
  Insert nick Quick quote
+Quote Post
post Oct 28 2022, 19:31:39
Post #5

Шесть Литров
******
Group: Металариец
Posts: 509
Releases: 18
On Forums: 10 years 8 months
Thanks: 826 time(s)
Iceland


Re-upload:


Register


Thanks:
Go to the top of the page
  Insert nick Quick quote
+Quote Post

Reply to this topicStart new topic
2 User(s) are reading this topic (2 Guests and 0 Anonymous Users)
0 Members:

 



- Lo-Fi Version Support form
Copyrights and abuse reports form
Time is now: 30th May 2024 - 21:05:41