Welcome Guest ( Log In | Register )

> Rotting Christ - Live @ Bloodstock Open Air 13.08.2016 [bootleg] (2016), Black/Dark Metal
post Aug 18 2016, 02:02:05
Post #1

Hellhammer/Celtic Frost/Triptykon
**************
Group: Металариец
Posts: 2,199
Releases: 777
From: Новосибирск
On Forums: 14 years 4 months
Thanks: 6613 time(s)
Russian Federation


(IMG:http://metalarea.org/images/audiocovers/2016_Aug/acov_tid272611_thumb.jpg)

*Artist: Rotting Christ
*Album: Live @ Bloodstock Open Air 13.08.2016 [bootleg]
*Year: 2016
*Genre: Black/Dark Metal
*Country: Greece (IMG:http://metalarea.org/forum/style_images/flags/Greece.png)
*Format: mp3@CBR320kbps
*Size: 117MB

Tracklist:
01.Intro 1:46
02.Ze Nigmar 4:49
03.Kata Ton Daimona Eaytoy 5:06
04.Athanati Este 5:15
05.Elthe Kyrie 4:48
06.Apage Satana 5:11
07.The Sign Of Evil Existence 1:56
08.The Forest of N'Gai 4:32
09.Societas Satanas 4:44
10.In Yumen / Xibalba 6:38
11.Noctis Era 6:12
******************************
Total playing time: 50:57

The Sign Of Evil Existence

Extended info
Rotting Christ ,Bloodstock Open Air,2016.08.13 - Live!
Качество хорошее.


Technical info
(IMG:http://metalarea.org/images/spectrogram/2016_Aug/1596caa04bebc12af05fd956fad33e89.png)
Input File: 06.Apage Satana.mp3
Channels : 2
Sample Rate : 44100
Precision : 16-bit
Duration : 00:05:11.96 = 13757436 samples = 23397 CDDA sectors
File Size : 12.5M
Bit Rate : 320k
Sample Encoding: MPEG audio (layer I, II or III)
Comments :
Artist=Rotting Christ
Album=Bloodstock Open Air
Year=2016
Genre=12



Register


Go to the top of the page
  Insert nick Quick quote
+Quote Post
 
Start new topic
Replies (1 - 3)
post Aug 18 2016, 13:02:43
Post #2

local
**************
Group: Металариец
Posts: 2,826
Releases: 260
On Forums: 16 years 2 months
Thanks: 7468 time(s)
Unknown


QUOTE(AlexStorm @ Aug 18 2016, 03:02:05) *
Качество хорошее.


Судя по спектру, я бы так не сказал (IMG:style_emoticons/default/fear.gif)
Одни низкие частоты, средние очень слабые, плюс высокочастотный шум (сплошная лента в районе 20 КГц).
Go to the top of the page
  Insert nick Quick quote
+Quote Post
post Aug 18 2016, 14:20:02
Post #3

Hellhammer/Celtic Frost/Triptykon
**************
Group: Металариец
Posts: 2,199
Releases: 777
From: Новосибирск
On Forums: 14 years 4 months
Thanks: 6613 time(s)
Russian Federation


ЦИТАТА(kostja @ Aug 18 2016, 15:02:43) *
Судя по спектру, я бы так не сказал (IMG:style_emoticons/default/fear.gif)
Одни низкие частоты, средние очень слабые, плюс высокочастотный шум (сплошная лента в районе 20 КГц).


kostja, я имею ввиду для бутлега (IMG:style_emoticons/default/smile3.gif) .Я как то Cannibal Corpse выкладывал - там вообще ужасное звучание(предупредил разумеется).Но народ качает с удовольствием.
Go to the top of the page
  Insert nick Quick quote
+Quote Post
post Jan 27 2023, 22:42:16
Post #4

Правь статус, ####!111
**************
Group: Металариец
Posts: 4,008
Releases: 0
From: UK
On Forums: 6 years 7 months
Thanks: 927 time(s)
United Kingdom


Please can you reup
Go to the top of the page
  Insert nick Quick quote
+Quote Post

Reply to this topicStart new topic
1 User(s) are reading this topic (1 Guests and 0 Anonymous Users)
0 Members:

 



- Lo-Fi Version Support form
Copyrights and abuse reports form
Time is now: 1st February 2023 - 11:14:08