Welcome Guest ( Log In | Register )

> И неформату есть предел.

Рэп/хип-хоп/шансон/поп удаляются. Для них есть свои порталы.

> Halo Manash - We Dance Ourselves Into Nothing [compilation] (2016), Dark/Ritual/Drone Ambient (D12)
post Aug 21 2016, 09:43:33
Post #1

the faceless one
Group Icon
Group: S-moderation team
Posts: 9,334
Releases: 1926
On Forums: 11 years 11 months
Thanks: 115235 time(s)
Russian Federation


(IMG:http://metalarea.org/images/audiocovers/2016_Aug/acov_tid272813_thumb.jpg)

*Artist: Halo Manash
*Album: We Dance Ourselves Into Nothing [compilation]
*Year: 2016
*Genre: Dark/Ritual/Drone Ambient
*Country: Finland (IMG:http://metalarea.org/forum/style_images/flags/Finland.png)
*Format: mp3@CBR320kbps
*Size: 83MB

Tracklist:
1. Lizard [SOL iki] Circle 08:14
2. Lentodellisuus 04:58
3. Mestilistse 06:11
4. Tulitania 09:02
5. Hypnostasis 09:23
******************************
Total playing time: 37:48

Extended info
Aural Hypnox – [AHMC13]

Request by svndvst


Technical info
(IMG:http://metalarea.org/images/spectrogram/2016_Aug/4b861f79e1b9b75811e8c7de088491e1.png)
Input File: 01 - Lizard [SOL iki] Circle.mp3
Channels : 2
Sample Rate : 44100
Precision : 16-bit
Duration : 00:08:13.68 = 21771376 samples = 37026.1 CDDA sectors
File Size : 19.7M
Bit Rate : 320k
Sample Encoding: MPEG audio (layer I, II or III)
Comments :
Title=Lizard [SOL iki] Circle
Artist=Halo Manash
Album=We Dance Ourselves Into Nothing
Tracknumber=1
Genre=Ambient



Register


Go to the top of the page
  Insert nick Quick quote
+Quote Post
 
Start new topic
Replies (1 - 1)
post Aug 22 2016, 21:07:53
Post #2

Sempiternus Necromant
**********
Group: Металариец
Posts: 1,041
Releases: 4
From: Сибирь - Алтайский Край
On Forums: 10 years 6 months
Thanks: 355 time(s)
Russian Federation


Самоосознание в пропасти, преломление всех существующих концепций, исток, о око сути, да озарит иное. Halo Manash, есть ритуал, реальный культ в бесформенной абстрактной музыке. Если бы, то что я есть пыталось обрести форму в звуке, но формы, изначально, не существует.


Thanks:
Go to the top of the page
  Insert nick Quick quote
+Quote Post

Reply to this topicStart new topic
2 User(s) are reading this topic (2 Guests and 0 Anonymous Users)
0 Members:

 



- Lo-Fi Version Support form
Copyrights and abuse reports form
Time is now: 13th July 2020 - 12:46:28