Welcome Guest ( Log In | Register )

> Как задавать вопросы

Если появился вопрос, технического характера, то он должен содержать:
1) Скриншот и ссылку на сообщение или страницу форума, где что-то не работает или работает не так.
2) Версию браузера и текущей операционной системы.
3) Последовательность действий, после которой ожидается положительный результат и описание фактически получаемого после выполнения этой последовательности действий результата. (Пример: зашёл сюда-то, выделил то-то, ткнул сюда-то, а там-то не появилось что-то)

Т.к. telepathy is not implemented yet©

> Как выглядит спектрограмма различных битрейтов, Ликбез.
post Aug 21 2016, 14:03:44
Post #1

\m/
Group Icon
Group: S-moderation team
Posts: 7,703
Releases: 19
From: Петропавловск-Камчатский
On Forums: 10 years 5 months
Thanks: 7279 time(s)
Russian Federation


На создание этой темы меня сподвигла другая тема: Devouring Ghost - Devouring Ghost (2015)
Для расширения собственного, а также общего кругозора, будет не лишним знать как выглядят графики у различных битрейтов.
Не редкость когда возникают вопросы и дискуссии: Почему мой релиз попал в Low? Вы знаете как это бывает.

Использовал: Exact Audio Copy V 1.0 beta from 29 August 2011. Кодек lame-3.93.1
Свой диск от Fono: Impaled Nazarene - Absence Of War Does Not Mean Peace, песня: Humble Fuck Of Death.
Трек для проверки качества в форму добавления релиза вставлял целый, не отрезал кусок.

Как мне кажется, этот диск не слишком удачный для примера.

128kbps
(IMG:https://metalarea.org/images/spectrogram/2016_Aug/9cf3878f2b01d61d01ad46cc5b0ac6ba.png)
Input File: 08 - Humble Fuck Of Death-128.mp3
Channels : 2
Sample Rate : 44100
Precision : 16-bit
Duration : 00:02:53.09 = 7633401 samples = 12982 CDDA sectors
File Size : 2.78M
Bit Rate : 128k
Sample Encoding: MPEG audio (layer I, II or III)
Comments :
Title=Humble Fuck Of Death
Artist=Impaled Nazarene
Album=Absence Of War Does Not Mean Peace
Tracknumber=08
Year=2001
Genre=Black Metal
Discnumber=1/1


192kbps
(IMG:https://metalarea.org/images/spectrogram/2016_Aug/daeaea40df0a2e7a40188d85fb21c12e.png)
Input File: 08 - Humble Fuck Of Death-192.mp3
Channels : 2
Sample Rate : 44100
Precision : 16-bit
Duration : 00:02:53.09 = 7633401 samples = 12982 CDDA sectors
File Size : 4.16M
Bit Rate : 192k
Sample Encoding: MPEG audio (layer I, II or III)
Comments :
Title=Humble Fuck Of Death
Artist=Impaled Nazarene
Album=Absence Of War Does Not Mean Peace
Tracknumber=08
Year=2001
Genre=Black Metal
Discnumber=1/1


224kbps
(IMG:https://metalarea.org/images/spectrogram/2016_Aug/33d115764cea03d988d8133dcc847364.png)
Input File: 08 - Humble Fuck Of Death-224.mp3
Channels : 2
Sample Rate : 44100
Precision : 16-bit
Duration : 00:02:53.09 = 7633401 samples = 12982 CDDA sectors
File Size : 4.85M
Bit Rate : 224k
Sample Encoding: MPEG audio (layer I, II or III)
Comments :
Title=Humble Fuck Of Death
Artist=Impaled Nazarene
Album=Absence Of War Does Not Mean Peace
Tracknumber=08
Year=2001
Genre=Black Metal
Discnumber=1/1


256kbps
(IMG:https://metalarea.org/images/spectrogram/2016_Aug/95da5ebeebffca6bcac28030a47efab2.png)
Input File: 08 - Humble Fuck Of Death-256.mp3
Channels : 2
Sample Rate : 44100
Precision : 16-bit
Duration : 00:02:53.09 = 7633401 samples = 12982 CDDA sectors
File Size : 5.55M
Bit Rate : 256k
Sample Encoding: MPEG audio (layer I, II or III)
Comments :
Title=Humble Fuck Of Death
Artist=Impaled Nazarene
Album=Absence Of War Does Not Mean Peace
Tracknumber=08
Year=2001
Genre=Black Metal
Discnumber=1/1


320kbps
(IMG:https://metalarea.org/images/spectrogram/2016_Aug/e9196928dcf301be133209faebd2edd0.png)
Input File: 08 - Humble Fuck Of Death-320.mp3
Channels : 2
Sample Rate : 44100
Precision : 16-bit
Duration : 00:02:53.09 = 7633401 samples = 12982 CDDA sectors
File Size : 6.93M
Bit Rate : 320k
Sample Encoding: MPEG audio (layer I, II or III)
Comments :
Title=Humble Fuck Of Death
Artist=Impaled Nazarene
Album=Absence Of War Does Not Mean Peace
Tracknumber=08
Year=2001
Genre=Black Metal
Discnumber=1/1

++++++++++++++++++++++++++++

Решил подстраховаться и добавить ещё CD-рип, теперь фирменный.
Bloodbath - Nightmares Made Flesh, Century Media 8255-2, песня: Bastard Son Of God.

128
(IMG:https://metalarea.org/images/spectrogram/2016_Aug/5e63ffc3b9eb42434c267c8848f48d2b.png)
Input File: 07 - Bastard Son Of God-128.mp3
Channels : 2
Sample Rate : 44100
Precision : 16-bit
Duration : 00:02:51.77 = 7575189 samples = 12883 CDDA sectors
File Size : 2.75M
Bit Rate : 128k
Sample Encoding: MPEG audio (layer I, II or III)
Comments :
Title=Bastard Son Of God
Artist=Bloodbath
Album=Nightmares Made Flesh
Tracknumber=07
Year=2004
Genre=Death Metal
Discnumber=1/1


192
(IMG:https://metalarea.org/images/spectrogram/2016_Aug/f695a3ff51b39c9d8ea364efb6544524.png)
Input File: 07 - Bastard Son Of God-192.mp3
Channels : 2
Sample Rate : 44100
Precision : 16-bit
Duration : 00:02:51.77 = 7575189 samples = 12883 CDDA sectors
File Size : 4.13M
Bit Rate : 192k
Sample Encoding: MPEG audio (layer I, II or III)
Comments :
Title=Bastard Son Of God
Artist=Bloodbath
Album=Nightmares Made Flesh
Tracknumber=07
Year=2004
Genre=Death Metal
Discnumber=1/1


224
(IMG:https://metalarea.org/images/spectrogram/2016_Aug/58cd6c87a1a66d0a889b26963b2492df.png)
Input File: 07 - Bastard Son Of God-224.mp3
Channels : 2
Sample Rate : 44100
Precision : 16-bit
Duration : 00:02:51.77 = 7575189 samples = 12883 CDDA sectors
File Size : 4.82M
Bit Rate : 224k
Sample Encoding: MPEG audio (layer I, II or III)
Comments :
Title=Bastard Son Of God
Artist=Bloodbath
Album=Nightmares Made Flesh
Tracknumber=07
Year=2004
Genre=Death Metal
Discnumber=1/1


256
(IMG:https://metalarea.org/images/spectrogram/2016_Aug/2582bb50be7cf535a6fa3cc0749ef9db.png)
Input File: 07 - Bastard Son Of God-256.mp3
Channels : 2
Sample Rate : 44100
Precision : 16-bit
Duration : 00:02:51.77 = 7575189 samples = 12883 CDDA sectors
File Size : 5.50M
Bit Rate : 256k
Sample Encoding: MPEG audio (layer I, II or III)
Comments :
Title=Bastard Son Of God
Artist=Bloodbath
Album=Nightmares Made Flesh
Tracknumber=07
Year=2004
Genre=Death Metal
Discnumber=1/1


320
(IMG:https://metalarea.org/images/spectrogram/2016_Aug/9808fea3e0fe9f8e2e1ea8bdb47d1f7a.png)
Input File: 07 - Bastard Son Of God-320.mp3
Channels : 2
Sample Rate : 44100
Precision : 16-bit
Duration : 00:02:51.77 = 7575189 samples = 12883 CDDA sectors
File Size : 6.88M
Bit Rate : 320k
Sample Encoding: MPEG audio (layer I, II or III)
Comments :
Title=Bastard Son Of God
Artist=Bloodbath
Album=Nightmares Made Flesh
Tracknumber=07
Year=2004
Genre=Death Metal
Discnumber=1/1


VBR192
(IMG:https://metalarea.org/images/spectrogram/2016_Aug/f032e93e2e8f656c6e86849cf12aeb18.png)
Input File: 07 - Bastard Son Of God-VBR192.mp3
Channels : 2
Sample Rate : 44100
Precision : 16-bit
Duration : 00:02:51.77 = 7575189 samples = 12883 CDDA sectors
File Size : 4.15M
Bit Rate : 193k
Sample Encoding: MPEG audio (layer I, II or III)
Comments :
Title=Bastard Son Of God
Artist=Bloodbath
Album=Nightmares Made Flesh
Tracknumber=07
Year=2004
Genre=Death Metal
Discnumber=1/1


В идеале можно и нужно больше данных, т.е. CD-рипы с разными битрейтами, сделанными через другие программы и кодеки, но у меня таких нету.
Если кто может добавить, прошу, не стесняйтесь, выкладывайте. (IMG:style_emoticons/default/smile1.gif)
Главное чтобы они были через форуму Добавления Нового Релиза .


Go to the top of the page
  Insert nick Quick quote
+Quote Post
3 Pages V  < 1 2 3  
Start new topic
Replies (60 - 84)
post Sep 10 2016, 19:09:42
Post #61

Hellhammer/Celtic Frost/Triptykon
**************
Group: Металариец
Posts: 2,188
Releases: 777
From: Новосибирск
On Forums: 11 years 2 months
Thanks: 6316 time(s)
Russian Federation


ЦИТАТА(avkruchinin @ Sep 10 2016, 21:02:14) *
Плеер не различает транскоды, ты можешь из 8 сделать Лося и он покажет, что это Лось (IMG:style_emoticons/default/23.gif)
У промышленных релизёров многое автоматизировано и работают они часто командой и часто под одним ником.


Вот те раз, из какой еще 8-ки?Про промышленных релизеров тоже любопытно стало.
Go to the top of the page
  Insert nick Quick quote
+Quote Post
post Sep 10 2016, 19:25:11
Post #62

South Of Heaven /адепт ВУДУ
**************
Group: Металариец
Posts: 13,825
Releases: 9
On Forums: 9 years 7 months
Thanks: 5236 time(s)
Unknown


ЦИТАТА(AlexStorm @ Sep 10 2016, 21:09:42) *
Вот те раз, из какой еще 8-ки?

Вот из этой (IMG:style_emoticons/default/1488.gif)
Смотри пост номер 8 для хаммера))
The No-Mads - Lost Control (2013)
Go to the top of the page
  Insert nick Quick quote
+Quote Post
post Sep 10 2016, 19:28:06
Post #63

Котеги! Нравяцо котеги?
**************
Group: Металариец
Posts: 5,910
Releases: 0
From: Терра Инкогнита
On Forums: 9 years 5 months
Thanks: 2390 time(s)
Russian Federation


ЦИТАТА(AlexStorm @ 10th September 2016 - 20:42:56) *
Megadeth (bootleg)

ну бутлег ещё может быть так записан же
Go to the top of the page
  Insert nick Quick quote
+Quote Post
post Sep 10 2016, 21:07:09
Post #64

Going home. Flying high.
**************
Group: Металариец
Posts: 12,946
Releases: 0
From: The Land of Shadows
On Forums: 13 years 2 months
Thanks: 21908 time(s)
Russian Federation


"промышленные релизеры" ещё и исчезают внезапно
взять хотя бы недоброго Самаритянина.
оно и понятно: нащёлкал 1 милиён убитых енотов на рекламе с руськи фолдыря - пора и честь знать!
Go to the top of the page
  Insert nick Quick quote
+Quote Post
post Sep 10 2016, 22:38:15
Post #65

:3
**************
Group: Металариец
Posts: 4,494
Releases: 103
From: Novosibirsk
On Forums: 12 years 1 month
Thanks: 3637 time(s)
Russian Federation


ЦИТАТА(sperminator @ 11th September 2016 - 03:07:09) *
нащёлкал 1 милиён убитых енотов на рекламе с руськи фолдыря

Будто бы что-то плохое. Позаливай посиди столько бесплатно.


Go to the top of the page
  Insert nick Quick quote
+Quote Post
post Sep 10 2016, 22:44:15
Post #66

_ - = # Thrashogolic # = - _ ... а давайте поржём все вместе
**************
Group: Металариец
Posts: 21,095
Releases: 4444
From: 404
On Forums: 9 years 4 months
Thanks: 27621 time(s)
Ukraine


ЦИТАТА(sperminator @ Sep 10 2016, 23:07:09) *
...
взять хотя бы недоброго Самаритянина.
оно и понятно: ...
Отчего понятно? Свечку держал?
Логи выплат лично видел? С ним часто и лично вживую встречался-общался?
Go to the top of the page
  Insert nick Quick quote
+Quote Post
post Sep 11 2016, 04:47:00
Post #67

Going home. Flying high.
**************
Group: Металариец
Posts: 12,946
Releases: 0
From: The Land of Shadows
On Forums: 13 years 2 months
Thanks: 21908 time(s)
Russian Federation


Genuine Thrashiac, зря ты так разволновался, я же ващще без претензий.
по приколу упомянул, да и всё.
мне фиолетово, кто, как и чем зарабатывает, пока мозги не начинает парить этим (& учить окружающих на собственном примере)
но, конечно, истеричная писанина от г-на С. в личку выглядела занятно (вся суть, кратко: "не сметь постить зеркала в моих темах!!")
а заливать, имхо, при современном жирном инете нынче не особо-то и накладно. другое дело - оформлять всю эту ботву... это да.


Go to the top of the page
  Insert nick Quick quote
+Quote Post
post Sep 11 2016, 05:39:06
Post #68

South Of Heaven /адепт ВУДУ
**************
Group: Металариец
Posts: 13,825
Releases: 9
On Forums: 9 years 7 months
Thanks: 5236 time(s)
Unknown


ЦИТАТА(sperminator @ Sep 11 2016, 06:47:00) *
другое дело - оформлять всю эту ботву... это да.

Тоже ничего трудного, а вот выдавать 96-128 за труЪ 320 это да, надо слегка поупираться (IMG:style_emoticons/default/1488.gif)


Go to the top of the page
  Insert nick Quick quote
+Quote Post
post Sep 15 2016, 21:43:35
Post #69

_ - = # Thrashogolic # = - _ ... а давайте поржём все вместе
**************
Group: Металариец
Posts: 21,095
Releases: 4444
From: 404
On Forums: 9 years 4 months
Thanks: 27621 time(s)
Ukraine


Так - кто хотел? Свежак
Amenaza - EP 2016 [ep] (2016)
TTX
(IMG:http://metalarea.org/images/spectrogram/2016_Sep/010238362d5ae338841ae5776a14e7e2.png)
Input File: 05 - Al Paredуn.mp3
Channels : 2
Sample Rate : 44100
Precision : 16-bit
Duration : 00:04:24.80 = 11677680 samples = 19860 CDDA sectors
File Size : 8.48M
Bit Rate : 256k
Sample Encoding: MPEG audio (layer I, II or III)
Comments :
Title=Al ParedГіn
Artist=Amenaza
Album=EP 2016
Tracknumber=5
Year=2016
Genre=Thrash Metal
Go to the top of the page
  Insert nick Quick quote
+Quote Post
post Sep 16 2016, 13:39:45
Post #70

\m/
Group Icon
Group: S-moderation team
Posts: 7,703
Releases: 19
From: Петропавловск-Камчатский
On Forums: 10 years 5 months
Thanks: 7279 time(s)
Russian Federation


Я даже решил собирать диковинные спектры (IMG:style_emoticons/default/1488.gif)
Karion - Demo II [demo] (1987)
Beefhammer - Completely Erect [ep] (2014)
Conjuro Nuclear - ♄ (2016)
Nacha Guevara - Heavy Tango (1991)
Эдакая артхаусная размазня)
Go to the top of the page
  Insert nick Quick quote
+Quote Post
post Sep 16 2016, 14:04:07
Post #71

Hellhammer/Celtic Frost/Triptykon
**************
Group: Металариец
Posts: 2,188
Releases: 777
From: Новосибирск
On Forums: 11 years 2 months
Thanks: 6316 time(s)
Russian Federation


ЦИТАТА(DarkHorde @ Sep 16 2016, 15:39:45) *


DarkHorde , да это же шедевр просто!


Thanks:
Go to the top of the page
  Insert nick Quick quote
+Quote Post
post Sep 20 2016, 16:34:56
Post #72

_ - = # Thrashogolic # = - _ ... а давайте поржём все вместе
**************
Group: Металариец
Posts: 21,095
Releases: 4444
From: 404
On Forums: 9 years 4 months
Thanks: 27621 time(s)
Ukraine


Должно ли это быть в Low Bitrate?
Prime Evil - Blood Curse Resurrection (2015)
Go to the top of the page
  Insert nick Quick quote
+Quote Post
post Sep 20 2016, 16:46:05
Post #73

Правь статус, ####!111
**************
Group: Металариец
Posts: 2,295
Releases: 204
On Forums: 12 years 11 months
Thanks: 5134 time(s)
Unknown


QUOTE(DarkHorde @ Sep 16 2016, 14:39:45) *
Я даже решил собирать диковинные спектры (IMG:style_emoticons/default/1488.gif)
Karion - Demo II [demo] (1987)


На частоте 20 КГц сильный высокочастотный шум.
Я такой же эффект заметил в песне Slayer "Ice Titan" (live) на сборнике
Slayer - Soundtrack To The Apocalypse [compilation] (2003)
Disc 3:
1. Ice Titan (Live In California - 3/83)

Я на это дело наложил в Audacity узкий высокочастотный фильтр как раз на 20 КГц.
Звук стал получше.
Для меня загадка, почему продюсеры не заметили это в студии, когда готовили релиз? (IMG:style_emoticons/default/hmm.gif)


Go to the top of the page
  Insert nick Quick quote
+Quote Post
post Sep 20 2016, 17:30:40
Post #74

_ - = # Thrashogolic # = - _ ... а давайте поржём все вместе
**************
Group: Металариец
Posts: 21,095
Releases: 4444
From: 404
On Forums: 9 years 4 months
Thanks: 27621 time(s)
Ukraine


kostja, потому что у них был хороший кокс? (IMG:style_emoticons/default/hmm.gif)
Go to the top of the page
  Insert nick Quick quote
+Quote Post
post Sep 20 2016, 20:02:47
Post #75

Правь статус, ####!111
**************
Group: Металариец
Posts: 2,223
Releases: 0
On Forums: 4 years 6 months
Thanks: 2490 time(s)
Russian Federation


ЦИТАТА(AlexStorm @ Sep 16 2016, 18:04:07) *
DarkHorde , да это же шедевр просто!

Ковёр хочу себе такой (IMG:style_emoticons/default/pray.gif) (IMG:style_emoticons/default/1488.gif)
Моно спектры тоже весело выглядят.


Thanks:
Go to the top of the page
  Insert nick Quick quote
+Quote Post
post Sep 20 2016, 20:15:06
Post #76

Правь статус, ####!111
**************
Group: Металариец
Posts: 2,295
Releases: 204
On Forums: 12 years 11 months
Thanks: 5134 time(s)
Unknown


QUOTE(METALHUNTER @ Sep 20 2016, 21:02:47) *
Ковёр хочу себе такой (IMG:style_emoticons/default/pray.gif) (IMG:style_emoticons/default/1488.gif)
Моно спектры тоже весело выглядят.


Ради любопытства скачал эту песенку Conjuro Nuclear - ? (2016) - 01 Cuarto Menguante,
чтобы посмотреть, что это за диковинная музыка.
Оказалось, обычное клавишное интро.
Надо бы запретить их загружать для спектров, т.к. они непредставительные получаются.
У второго трека с гитарами и т.д. уже совсем другой спектр получился бы.


Go to the top of the page
  Insert nick Quick quote
+Quote Post
post Sep 20 2016, 20:22:07
Post #77

Правь статус, ####!111
**************
Group: Металариец
Posts: 2,223
Releases: 0
On Forums: 4 years 6 months
Thanks: 2490 time(s)
Russian Federation


ЦИТАТА(kostja @ Sep 21 2016, 00:15:06) *
Ради любопытства скачал эту песенку Conjuro Nuclear - ? (2016) - 01 Cuarto Menguante,
чтобы посмотреть, что это за диковинная музыка.
Оказалось, обычное клавишное интро.
Надо бы запретить их загружать для спектров, т.к. они непредставительные получаются.
У второго трека с гитарами и т.д. уже совсем другой спектр получился бы.

Так и есть, подобные интро не отображают реальный спектр.
Go to the top of the page
  Insert nick Quick quote
+Quote Post
post Sep 21 2016, 13:35:27
Post #78

\m/
Group Icon
Group: S-moderation team
Posts: 7,703
Releases: 19
From: Петропавловск-Камчатский
On Forums: 10 years 5 months
Thanks: 7279 time(s)
Russian Federation


ЦИТАТА(kostja @ 21st September 2016 - 07:15:06) *
Надо бы запретить их загружать для спектров, т.к. они непредставительные получаются.

Согласен.
Кстати у амбиентных композиций такой же спектр, т.е. ваааще диковинный (IMG:style_emoticons/default/1488.gif)
Go to the top of the page
  Insert nick Quick quote
+Quote Post
post Sep 21 2016, 14:01:52
Post #79

South Of Heaven /адепт ВУДУ
**************
Group: Металариец
Posts: 13,825
Releases: 9
On Forums: 9 years 7 months
Thanks: 5236 time(s)
Unknown


ЦИТАТА(DarkHorde @ Sep 16 2016, 15:39:45) *

Может это спектр паузы между песнями (IMG:style_emoticons/default/1488.gif)
Go to the top of the page
  Insert nick Quick quote
+Quote Post
post Mar 6 2018, 00:10:05
Post #80

Group: Дух
Posts: 1
Releases: 0
From: USA
On Forums: 1 year 8 months
Thanks: 0 time(s)



Этой утопии у меня знакомые заиграли аж 4 газеты с оригиналом.
Кому-как, а мне показатель... Остальные номера в таком количестве не заигрывались...
Go to the top of the page
  Insert nick Quick quote
+Quote Post
post Mar 6 2018, 19:01:38
Post #81

_ - = # Thrashogolic # = - _ ... а давайте поржём все вместе
**************
Group: Металариец
Posts: 21,095
Releases: 4444
From: 404
On Forums: 9 years 4 months
Thanks: 27621 time(s)
Ukraine


ЦИТАТА(Grahamsak @ Mar 6 2018, 01:10:05) *
Этой утопии у меня знакомые заиграли аж 4 газеты с оригиналом.
Кому-как, а мне показатель... Остальные номера в таком количестве не заигрывались...
Или здесь сработал плохой перевод гугл-транслейта.
Или это будущи спамер то тут, то там набивает кол-во сообщений.


Thanks:
Go to the top of the page
  Insert nick Quick quote
+Quote Post
post May 18 2018, 10:23:53
Post #82

_ - = # Thrashogolic # = - _ ... а давайте поржём все вместе
**************
Group: Металариец
Posts: 21,095
Releases: 4444
From: 404
On Forums: 9 years 4 months
Thanks: 27621 time(s)
Ukraine


А что у нас тут?
Nocturnal Graves - Titan (2018)
Go to the top of the page
  Insert nick Quick quote
+Quote Post
post May 18 2018, 10:41:29
Post #83

Правь статус, ####!111
**************
Group: Металариец
Posts: 2,295
Releases: 204
On Forums: 12 years 11 months
Thanks: 5134 time(s)
Unknown


QUOTE(Genuine Thrashiac @ May 18 2018, 11:23:53) *
А что у нас тут?
Nocturnal Graves - Titan (2018)


Глюк, несколько раз такое уже наблюдал.
Go to the top of the page
  Insert nick Quick quote
+Quote Post
post May 18 2018, 10:51:42
Post #84

South Of Heaven /адепт ВУДУ
**************
Group: Металариец
Posts: 13,825
Releases: 9
On Forums: 9 years 7 months
Thanks: 5236 time(s)
Unknown


ЦИТАТА(Genuine Thrashiac @ May 18 2018, 12:23:53) *
А что у нас тут?

Это спектрограмма паузы между трэками (IMG:style_emoticons/default/25.gif)
Go to the top of the page
  Insert nick Quick quote
+Quote Post
post Jul 27 2018, 05:10:29
Post #85

Che-gurt!
Group Icon
Group: Tech team
Posts: 2,799
Releases: 223
From: Antarctica
On Forums: 13 years 6 months
Thanks: 3531 time(s)
Antarctica


ЦИТАТА(avkruchinin @ 21st August 2016 - 17:14:49) *
Обратите внимание, хороший рип в 320 может совпадать по спектрам с Лосём и диском

Ну видно же по первому релизу что на 320 кбит спектр выше 16кГц всё равно весь зернистый, т.е. смысл его оставлять таким не детальным стремится к нулю.

Эта тема уже давно обмусолена была. Хотябы тут Исследование сонограмм разных битрейтов ламе 3.98
Go to the top of the page
  Insert nick Quick quote
+Quote Post

3 Pages V  < 1 2 3
Reply to this topicStart new topic
1 User(s) are reading this topic (1 Guests and 0 Anonymous Users)
0 Members:

 



- Lo-Fi Version Support form
Copyrights and abuse reports form
Time is now: 14th November 2019 - 00:15:12