Welcome Guest ( Log In | Register )

> Convulsif - IV (2016), Psychedelic/Avant-Garde Black Metal
post Aug 23 2016, 16:58:06
Post #1

Аннигилятор пивА
Group Icon
Group: V.I.P
Posts: 52,360
Releases: 16550
From: Koenigsberg - TILZIT
On Forums: 14 years 1 month
Thanks: 365522 time(s)
Russian Federation


(IMG:https://metalarea.org/images/audiocovers/2016_Aug/acov_tid272941_thumb.jpg)

*Artist: Convulsif
*Album: IV
*Year: 2016
*Genre: Psychedelic/Avant-Garde Black Metal
*Country: Switzerland (IMG:https://metalarea.org/forum/style_images/flags/Switzerland.png)
*Format: mp3@CBR320kbps
*Size: 93MB

Tracklist:
1. Hunting For Teeth 08:33
2. Why Hide 01:45
3. Two Of A Kind 07:29
4. Solemn Creatures 03:47
5. When The Day Breaks 03:17
6. Everyone Will Fail 04:27
7. Reason Of Sleep 07:46
8. Everyone Will Fall 00:20
******************************
Total playing time: 37:24




Technical info
(IMG:https://metalarea.org/images/spectrogram/2016_Aug/a37a71a08984dbb8079ecd5d181e15fd.png)
Input File: 05 - When The Day Breaks.mp3
Channels : 2
Sample Rate : 44100
Precision : 16-bit
Duration : 00:03:17.93 = 8728493 samples = 14844.4 CDDA sectors
File Size : 8.18M
Bit Rate : 331k
Sample Encoding: MPEG audio (layer I, II or III)
Comments :
Title=When The Day Breaks
Artist=Convulsif
Album=IV
Tracknumber=5
Year=2016
Genre=Avant-Garde



Register


Go to the top of the page
  Insert nick Quick quote
+Quote Post
 
Start new topic
Replies (1 - 6)
post Aug 23 2016, 17:23:56
Post #2

Три Литра
***
Group: Завсегдатай
Posts: 273
Releases: 0
From: Россия
On Forums: 8 years 4 months
Thanks: 90 time(s)
Russian Federation


Можно было бы добавить тег техникал (IMG:style_emoticons/default/1488.gif)


Thanks:
Go to the top of the page
  Insert nick Quick quote
+Quote Post
post Aug 23 2016, 18:26:37
Post #3

Аннигилятор пивА
Group Icon
Group: V.I.P
Posts: 52,360
Releases: 16550
From: Koenigsberg - TILZIT
On Forums: 14 years 1 month
Thanks: 365522 time(s)
Russian Federation


ЦИТАТА(Kehl05 @ Aug 23 2016, 16:23:56) *
Можно было бы добавить тег техникал (IMG:style_emoticons/default/1488.gif)

настолько тухло и тупо, что даже как-то перед Ваганычем неудобно за твой пук, пиши ишшо, о мой унылый знаток шуток-юмора
Go to the top of the page
  Insert nick Quick quote
+Quote Post
post Aug 23 2016, 19:17:55
Post #4

Don't be negative.
**************
Group: Металариец
Posts: 2,858
Releases: 754
From: Earthmother
On Forums: 9 years 9 months
Thanks: 10103 time(s)
Ukraine


Black'a на альбоме только один трек грубо говоря, и то пополам с грайндкором. В остальном Drone Doom/Noise/Dark Jazz с легким налётом пост-рока, эмбиента. Еще имеется около-математика (второй и третий трек). Альбом кошерный, но зайдёт далеко не всем. В основном любителям мрачного дума пополам с нойзом и экспериментами.


Thanks:
Go to the top of the page
  Insert nick Quick quote
+Quote Post
post Aug 23 2016, 20:20:35
Post #5

Up From The Grave
********
Group: Металариец
Posts: 862
Releases: 121
From: Minsk
On Forums: 10 years 11 months
Thanks: 2371 time(s)
Belarus




Thanks:
Go to the top of the page
  Insert nick Quick quote
+Quote Post
post Aug 25 2016, 19:56:06
Post #6

Ничего не знаю. Ничего.
***********
Group: Металариец
Posts: 1,509
Releases: 47
From: вержение
On Forums: 11 years 8 months
Thanks: 1670 time(s)
Russian Federation


Вступительный трек очень напомнил вступительную Coalescent Of The Inhumane Awareness у Tyranny на дебютнике.
Go to the top of the page
  Insert nick Quick quote
+Quote Post
post Aug 26 2016, 00:02:36
Post #7

хаос и порядок
***
Group: Завсегдатай
Posts: 296
Releases: 0
From: Запорожье
On Forums: 10 years 2 months
Thanks: 99 time(s)
Ukraine


ЦИТАТА(KoreanGringo @ Aug 23 2016, 21:17:55) *
...В основном любителям мрачного дума пополам с нойзом и экспериментами.

Ну, да, потому, что любители дума очень любят побольше нот в секунду.
Go to the top of the page
  Insert nick Quick quote
+Quote Post

Reply to this topicStart new topic
2 User(s) are reading this topic (2 Guests and 0 Anonymous Users)
0 Members:

 



- Lo-Fi Version Support form
Copyrights and abuse reports form
Time is now: 2nd July 2020 - 12:33:49