Welcome Guest ( Log In | Register )

> Libido Airbag - Sleaze Servant [ep] (2016), Porno Goregrind/Cybergrind
post Aug 24 2016, 13:26:38
Post #1

Serial Uploader
Group Icon
Group: V.I.P
Posts: 42,373
Releases: 40442
From: Lithuania
On Forums: 15 years 10 months
Thanks: 516533 time(s)
Lithuania


(IMG:https://metalarea.org/images/audiocovers/2016_Aug/acov_tid272995_thumb.jpg)

*Artist: Libido Airbag
*Album: Sleaze Servant [ep]
*Year: 2016
*Genre: Porno Goregrind/Cybergrind
*Country: Germany (IMG:https://metalarea.org/forum/style_images/flags/Germany.png)
*Format: mp3@VBR230kbps
*Size: 29MB

Tracklist:
01. Rimmadonna Rising 01:48
02. Sleaze Servant 02:23
03. Black Mark Of The Iron Phallus 02:43
04. Circle Of The Clit Splitter Cultists 03:23
05. Rectum Ritual 01:56
06. Machismo Messiah 02:30
07. Praise The Placentagram 02:48
******************************
Total playing time: 17:31




Extended info
Scene CD-rip

(IMG:http://metalarea.org/images/spectrogram/2016_Aug/94a75d03a47c54158e940c6872d7da7c.png)
Input File: 05-libido_airbag-rectum_ritual-berc.mp3
Channels : 2
Sample Rate : 44100
Precision : 16-bit
Duration : 00:01:56.74 = 5148278 samples = 8755.57 CDDA sectors
File Size : 3.27M
Bit Rate : 224k
Sample Encoding: MPEG audio (layer I, II or III)
Comments :
Title=Rectum Ritual
Artist=Libido Airbag
Album=Sleaze Servant
Tracknumber=5/7
Year=2016
Genre=Death Metal
Discnumber=1/1


Register


Go to the top of the page
  Insert nick Quick quote
+Quote Post
 
Start new topic
Replies (1 - 4)
post Aug 24 2016, 14:34:34
Post #2

the ubspeakable
**********
Group: Металариец
Posts: 1,430
Releases: 37
From: Pietari
On Forums: 18 years 4 months
Thanks: 2342 time(s)
Russian Federation


ЦИТАТА(necroscum @ Aug 24 2016, 15:26:38) *
*Genre: Porno Goregrind

вообще-то они всю жизнь киберграйндом были (IMG:style_emoticons/default/smile1.gif)
Go to the top of the page
  Insert nick Quick quote
+Quote Post
post Aug 24 2016, 18:48:00
Post #3

Пациент наркодиспансера
*******
Group: Металариец
Posts: 769
Releases: 1
From: вращенец
On Forums: 15 years 1 day
Thanks: 214 time(s)
Ukraine


ЦИТАТА(AlexCrazy @ 24th August 2016 - 16:34:34) *
вообще-то они всю жизнь киберграйндом были

Порно кибер горграйндом (IMG:style_emoticons/default/smile1.gif)
Одна из любейших групп в принципе разродилась. Что я могу сказать? Ура.


Thanks:
Go to the top of the page
  Insert nick Quick quote
+Quote Post
post Aug 25 2016, 21:17:44
Post #4

**************
Group: Металариец
Posts: 2,950
Releases: 14
From: Казань
On Forums: 14 years 7 months
Thanks: 4256 time(s)
Russian Federation


Да не может быть...Это единственное, что могу еще слушать из подобного

Киберзеркало
Register


Go to the top of the page
  Insert nick Quick quote
+Quote Post
post Aug 29 2016, 18:35:45
Post #5

Отставший от мерседеса
**********
Group: Металариец
Posts: 1,197
Releases: 270
From: Ukraine
On Forums: 15 years 1 month
Thanks: 2427 time(s)
Ukraine


Раньше Libido поинтереснее играло)
Go to the top of the page
  Insert nick Quick quote
+Quote Post

Reply to this topicStart new topic
1 User(s) are reading this topic (1 Guests and 0 Anonymous Users)
0 Members:

 



- Lo-Fi Version Support form
Copyrights and abuse reports form
Time is now: 17th April 2024 - 23:23:38