Welcome Guest ( Log In | Register )

> Wraithe - The Theory Of Truth [ep] (2016), Atmospheric Black Metal
post Sep 2 2016, 10:51:27
Post #1

Аннигилятор пивА
Group Icon
Group: V.I.P
Posts: 52,360
Releases: 16550
From: Koenigsberg - TILZIT
On Forums: 15 years 1 month
Thanks: 367915 time(s)
Russian Federation


(IMG:http://metalarea.org/images/audiocovers/2016_Sep/acov_tid273460_thumb.jpg)

*Artist: Wraithe
*Album: The Theory Of Truth [ep]
*Year: 2016
*Genre: Atmospheric Black Metal
*Country: United States (IMG:http://metalarea.org/forum/style_images/flags/United%20States.png)
*Format: mp3@CBR320kbps
*Size: 53MB

Tracklist:
1. Dreams of the Wraith 09:34
2. The Impurity Of Consciousness 12:56
******************************
Total playing time: 22:30



Extended info
Debut EP by Wraithe


Technical info
(IMG:http://metalarea.org/images/spectrogram/2016_Sep/a6001236e6b7dbbfa3d9e38b06efb621.png)
Input File: Wraithe - The Theory Of Truth - 01 Dreams of the Wraith.mp3
Channels : 2
Sample Rate : 44100
Precision : 16-bit
Duration : 00:09:34.12 = 25318692 samples = 43059 CDDA sectors
File Size : 23.0M
Bit Rate : 321k
Sample Encoding: MPEG audio (layer I, II or III)
Comments :
Title=Dreams of the Wraith
Artist=Wraithe
Album=The Theory Of Truth
Tracknumber=1
Year=2016



Register


Go to the top of the page
  Insert nick Quick quote
+Quote Post
 
Start new topic
Replies (1 - 2)
post May 12 2021, 14:22:22
Post #2

Два Литра
**
Group: Завсегдатай
Posts: 192
Releases: 1
From: france
On Forums: 14 years 1 month
Thanks: 14 time(s)
France


reup please (IMG:style_emoticons/default/smile3.gif)
Go to the top of the page
  Insert nick Quick quote
+Quote Post
post May 12 2021, 14:38:13
Post #3

Добрый
**************
Group: Металариец
Posts: 5,008
Releases: 0
On Forums: 3 years 3 weeks
Thanks: 12682 time(s)
Russian Federation


52 mb/320 kbps
Register


Go to the top of the page
  Insert nick Quick quote
+Quote Post

Reply to this topicStart new topic
1 User(s) are reading this topic (1 Guests and 0 Anonymous Users)
0 Members:

 



- Lo-Fi Version Support form
Copyrights and abuse reports form
Time is now: 24th July 2021 - 12:46:12