Welcome Guest ( Log In | Register )

> Indica Blues - Ruins On The Shore [ep] (2016), Psychedelic Doom Metal
post Sep 6 2016, 08:56:09
Post #1

Аннигилятор пивА
Group Icon
Group: V.I.P
Posts: 52,360
Releases: 16550
From: Koenigsberg - TILZIT
On Forums: 15 years 2 months
Thanks: 367928 time(s)
Russian Federation


(IMG:http://metalarea.org/images/audiocovers/2016_Sep/acov_tid273752_thumb.jpg)

*Artist: Indica Blues
*Album: Ruins On The Shore [ep]
*Year: 2016
*Genre: Psychedelic Doom Metal
*Country: United Kingdom (IMG:http://metalarea.org/forum/style_images/flags/United%20Kingdom.png)
*Format: mp3@CBR320kbps
*Size: 77MB

Tracklist:
1. Arms to the Sky 06:50
2. Feed the Pyre 07:15
3. Wasted Landscapes 06:14
4. Ruins on the Shore 10:41
******************************
Total playing time: 31:00




Extended info



Technical info
(IMG:http://metalarea.org/images/spectrogram/2016_Sep/1d8c7a4636c857236cf8309f8e3dbb6d.png)
Input File: 03 - Wasted Landscapes.mp3
Channels : 2
Sample Rate : 44100
Precision : 16-bit
Duration : 00:06:14.63 = 16521359 samples = 28097.5 CDDA sectors
File Size : 15.5M
Bit Rate : 330k
Sample Encoding: MPEG audio (layer I, II or III)
Comments :
Title=Wasted Landscapes
Artist=Indica Blues
Album=Ruins on the Shore
Tracknumber=3/4
Year=2016
Genre=Metal
Discnumber=1



Register


Go to the top of the page
  Insert nick Quick quote
+Quote Post
 
Start new topic
Replies (1 - 5)
post Sep 6 2016, 18:18:07
Post #2

Правь статус, ####!111
**************
Group: Металариец
Posts: 49,007
Releases: 848
On Forums: 12 years 1 month
Thanks: 44042 time(s)
Russian Federation


Олег, выцепи ещё это, если получится:
Go to the top of the page
  Insert nick Quick quote
+Quote Post
post Sep 7 2016, 21:48:56
Post #3

Правь статус, ####!111
**************
Group: Металариец
Posts: 49,007
Releases: 848
On Forums: 12 years 1 month
Thanks: 44042 time(s)
Russian Federation


Круто! И хоть заглавная песня пабижжина у Монолорда, это не делает сей мини стафф менее крутым. Отменный грузный полностью пропсиходеличенный грин сайкоделик СТОУНЕР дум. Вокал тоже крутой. Молодцы англосаксы! В топ года в подобном думе. Фэнам жанра придётся в жилу, гарантирую.
Go to the top of the page
  Insert nick Quick quote
+Quote Post
post Jan 22 2019, 22:13:56
Post #4

Литр
*
Group: Подсевший
Posts: 61
Releases: 0
On Forums: 3 years 7 months
Thanks: 0 time(s)
Albania


File is deleted ...
Go to the top of the page
  Insert nick Quick quote
+Quote Post
post Jan 23 2019, 15:35:04
Post #5

Group Icon
Group: S-moderation team
Posts: 21,464
Releases: 1443
From: Zagreb
On Forums: 10 years 5 months
Thanks: 99691 time(s)
Croatia


Register


Thanks:
Go to the top of the page
  Insert nick Quick quote
+Quote Post
post Jul 21 2021, 18:24:36
Post #6

Русский
*****
Group: Металариец
Posts: 439
Releases: 0
From: Москва
On Forums: 14 years 11 months
Thanks: 180 time(s)
Russian Federation


ништяк
Go to the top of the page
  Insert nick Quick quote
+Quote Post

Reply to this topicStart new topic
1 User(s) are reading this topic (1 Guests and 0 Anonymous Users)
0 Members:

 



- Lo-Fi Version Support form
Copyrights and abuse reports form
Time is now: 27th July 2021 - 20:27:51