Welcome Guest ( Log In | Register )

> Korium - Strazcovia Hradu (2015), Depressive Black Metal
post Sep 15 2016, 11:55:34
Post #1

Литр
*
Group: Подсевший
Posts: 60
Releases: 17
On Forums: 11 years 11 months
Thanks: 317 time(s)
Ukraine


(IMG:http://metalarea.org/images/audiocovers/2016_Sep/acov_tid274300_thumb.jpg)

*Artist: Korium
*Album: Strazcovia Hradu
*Year: 2015
*Genre: Depressive Black Metal
*Country: Slovakia (IMG:http://metalarea.org/forum/style_images/flags/Slovakia.png)
*Format: mp3@CBR320kbps
*Size: 148MB

Tracklist:
Side A
1. Strazcovia Hradu I. 16:25
2. Spomienka 11:50
Side B
3. Strazcovia Hradu II. 20:57
4. Erblicket die Tochter des Firmaments (Burzum cover) 11:15
******************************
Total playing time: 1:00:30



Technical info
(IMG:http://metalarea.org/images/spectrogram/2016_Sep/4dad9c8bc71ba3645e2c73c6af65c39b.png)
Input File: 02 Spomienka.mp3
Channels : 2
Sample Rate : 44100
Precision : 16-bit
Duration : 00:11:50.94 = 31352278 samples = 53320.2 CDDA sectors
File Size : 29.7M
Bit Rate : 334k
Sample Encoding: MPEG audio (layer I, II or III)
Comments :
Title=Spomienka
Artist=Korium
Album=StrГЎЕѕcovia Hradu
Tracknumber=2
Year=2015
Genre=Black Metal



Register


Go to the top of the page
  Insert nick Quick quote
+Quote Post
 
Start new topic
Replies (1 - 1)
post Sep 16 2016, 04:24:21
Post #2

Правь статус, ####!111
**************
Group: Металариец
Posts: 2,795
Releases: 18
From: Eternal darkness
On Forums: 13 years 8 months
Thanks: 7697 time(s)
Russian Federation


Register


Thanks:
Go to the top of the page
  Insert nick Quick quote
+Quote Post

Reply to this topicStart new topic
1 User(s) are reading this topic (1 Guests and 0 Anonymous Users)
0 Members:

 



- Lo-Fi Version Support form
Copyrights and abuse reports form
Time is now: 25th June 2021 - 11:03:53