Welcome Guest ( Log In | Register )

Объявления

* gmail.com упорно продолжает считать почту с нас "unsolicited" и отбивает в том числе и письма активации, поэтому просьба использовать альтернативные почтовые ящики.
------------
* gmail.com continues reject all mail from us as "unsolicited" (activation mails too) therefore please use alternate mail servers.
> Svrm - 7 [demo] (2015), Atmospheric Black Metal
post Sep 17 2016, 10:22:40
Post #1

Правь статус, ####!111
**************
Group: Металариец
Posts: 2,755
Releases: 2267
From: Praha
On Forums: 10 years 2 months
Thanks: 63973 time(s)
Czech Republic


(IMG:http://metalarea.org/images/audiocovers/2016_Sep/acov_tid274440_thumb.jpg)

*Artist: Svrm
*Album: 7 [demo]
*Year: 2015
*Genre: Atmospheric Black Metal
*Country: Ukraine (IMG:http://metalarea.org/forum/style_images/flags/Ukraine.png)
*Format: mp3@CBR320kbps
*Size: 38MB

Tracklist:
1. mir 03:29
2. Отчаяние 03:22
3. I 05:03
4. Загробное 04:17
******************************
Total playing time: 16:11

Extended info
KVLT!


Technical info
(IMG:http://metalarea.org/images/spectrogram/2016_Sep/6ea4f916ffaa80a25beb4ad1b0228a84.png)
Input File: 01. Mir.mp3
Channels : 2
Sample Rate : 44100
Precision : 16-bit
Duration : 00:03:29.68 = 9246800 samples = 15725.9 CDDA sectors
File Size : 8.48M
Bit Rate : 324k
Sample Encoding: MPEG audio (layer I, II or III)
Comments :
Title=mir
Artist=svrm
Album=7
Tracknumber=01/04
Year=2015
Genre=Black Metal



Register


Go to the top of the page
  Insert nick Quick quote
+Quote Post
 
Start new topic
Replies (1 - 2)
post Sep 17 2016, 17:47:27
Post #2

Маньяк
**********
Group: Металариец
Posts: 1,136
Releases: 0
On Forums: 12 years 6 months
Thanks: 174 time(s)
Ukraine


Go to the top of the page
  Insert nick Quick quote
+Quote Post
post Jan 5 2018, 11:39:40
Post #3

True Holocaust
*****
Group: Металариец
Posts: 430
Releases: 2
From: Рідна Ненька Україна
On Forums: 14 years 5 months
Thanks: 847 time(s)
Ukraine


Register


Go to the top of the page
  Insert nick Quick quote
+Quote Post

Reply to this topicStart new topic
1 User(s) are reading this topic (1 Guests and 0 Anonymous Users)
0 Members:

 



- Lo-Fi Version Support form
Copyrights and abuse reports form
Time is now: 24th June 2024 - 08:13:51