Welcome Guest ( Log In | Register )

> Deep Sun - Race Against Time (2016), Symphonic Metal
post Sep 21 2016, 13:33:39
Post #1

Serial Uploader
Group Icon
Group: V.I.P
Posts: 38,480
Releases: 36627
From: Lithuania
On Forums: 13 years 11 months
Thanks: 453257 time(s)
Lithuania


(IMG:http://metalarea.org/images/audiocovers/2016_Sep/acov_tid274666_thumb.jpg)

*Artist: Deep Sun
*Album: Race Against Time
*Year: 2016
*Genre: Symphonic Metal
*Country: Switzerland (IMG:http://metalarea.org/forum/style_images/flags/Switzerland.png)
*Format: mp3@CBR320kbps
*Size: 133MB

Tracklist:
01. Race Against Time
02. Riders Of Death
03. The Believer
04. Good Old Times
05. Dreaming Leprechaun
06. Nostalgia
07. Deep Sun
08. For Eternity
09. Des Königs Krieger
10. Dark Ravine
11. Whispering Screams
******************************
Total playing time: 56:46



Technical info
(IMG:http://metalarea.org/images/spectrogram/2016_Sep/47b678c7f84680fd019d37d85b09541a.png)
Input File: 02. Riders Of Death.mp3
Channels : 2
Sample Rate : 44100
Precision : 16-bit
Duration : 00:04:04.53 = 10783861 samples = 18339.9 CDDA sectors
File Size : 10.0M
Bit Rate : 328k
Sample Encoding: MPEG audio (layer I, II or III)
Comments :
Title=Riders Of Death
Artist=Deep Sun
Album=Race Against Time
Tracknumber=02/11
Year=2016



Register


Go to the top of the page
  Insert nick Quick quote
+Quote Post
 
Start new topic
Replies (1 - 7)
post Sep 21 2016, 15:03:17
Post #2

Аннигилятор пивА
Group Icon
Group: V.I.P
Posts: 52,360
Releases: 16547
From: Koenigsberg - TILZIT
On Forums: 15 years 11 months
Thanks: 369369 time(s)
Russian Federation


320/130mb
Register


Go to the top of the page
  Insert nick Quick quote
+Quote Post
post Sep 21 2016, 18:12:53
Post #3

hearer & reader
**************
Group: Металариец
Posts: 10,281
Releases: 211
From: Moscow
On Forums: 14 years 8 months
Thanks: 12391 time(s)
Russian Federation



У Тарьи - новый конкурент (IMG:style_emoticons/default/15.gif)
Go to the top of the page
  Insert nick Quick quote
+Quote Post
post Sep 22 2016, 14:06:04
Post #4

Ъ
**************
Group: Металариец
Posts: 10,976
Releases: 9
On Forums: 13 years 4 months
Thanks: 2211 time(s)
Sweden


Такие конкуренты чуть ли не каждый день выходят. (IMG:style_emoticons/default/1488.gif)


Thanks:
(2) Deze, Fess,
Go to the top of the page
  Insert nick Quick quote
+Quote Post
post Sep 24 2016, 10:46:29
Post #5

Necromancer
Group Icon
Group: Curation team
Posts: 11,046
Releases: 271
From: Зеленоград
On Forums: 15 years 7 months
Thanks: 8930 time(s)
Russian Federation


Да... и ведь по превью было ясно, что это стабильная пустыщка. Хотя, я прогнал, для интереса. Ерунда, как и ожидалось. (IMG:style_emoticons/default/21.gif)
Go to the top of the page
  Insert nick Quick quote
+Quote Post
post Oct 6 2016, 11:42:44
Post #6

Перевозчик
**************
Group: Металариец
Posts: 3,411
Releases: 0
On Forums: 13 years 10 months
Thanks: 759 time(s)
Russian Federation


ЦИТАТА(AHBAnep @ Sep 21 2016, 20:12:53) *
У Тарьи - новый конкурент (IMG:style_emoticons/default/15.gif)


Хех, всё дело в том, что Тарья и поёт не лучше всех, и выглядит не на десять баллов, но она оказалась в нужное время в нужном месте и сделала своё дело на отлично, став достаточно значимой исторической вехой вместе с Найтвиш. А быть вторым в таком специфическом вокально-метальном сочетании уже попросту бесполезно. Как я миллион раз говорил: всё уже сказано, надо идти дальше. Даже сами Найты пошли дальше, за что им честь и хвала, хоть особо достойного материала после балканизации они и не выпускали.
Go to the top of the page
  Insert nick Quick quote
+Quote Post
post Oct 6 2016, 12:05:21
Post #7

21st Century Schizoid Man
**************
Group: Металариец
Posts: 7,261
Releases: 90
From: Pirate Bay
On Forums: 14 years 3 weeks
Thanks: 6153 time(s)
Liberia


Ну и отстой, даже видео синхронизировать не смогли. (IMG:style_emoticons/default/poke_g.gif)
Go to the top of the page
  Insert nick Quick quote
+Quote Post
post Apr 2 2022, 15:34:22
Post #8

Forever Underground
**************
Group: Металариец
Posts: 9,872
Releases: 0
On Forums: 7 years 1 month
Thanks: 14345 time(s)
Unknown


From web, @320
Register

FLAC:
Register


Thanks:
(1) wreak,
Go to the top of the page
  Insert nick Quick quote
+Quote Post

Reply to this topicStart new topic
1 User(s) are reading this topic (1 Guests and 0 Anonymous Users)
0 Members:

 



- Lo-Fi Version Support form
Copyrights and abuse reports form
Time is now: 25th May 2022 - 19:48:54