Welcome Guest ( Log In | Register )

Объявления

* gmail.com упорно продолжает считать почту с нас "unsolicited" и отбивает в том числе и письма активации, поэтому просьба использовать альтернативные почтовые ящики.
------------
* gmail.com continues reject all mail from us as "unsolicited" (activation mails too) therefore please use alternate mail servers.
> Elder Druid - Magicka (2016), Sludge/Doom Metal
post Sep 24 2016, 11:34:29
Post #1

Serial Uploader
Group Icon
Group: V.I.P
Posts: 42,601
Releases: 40667
From: Lithuania
On Forums: 15 years 11 months
Thanks: 521278 time(s)
Lithuania


(IMG:https://metalarea.org/images/audiocovers/2016_Sep/acov_tid274866_thumb.jpg)

*Artist: Elder Druid
*Album: Magicka
*Year: 2016
*Genre: Sludge/Doom Metal
*Country: United Kingdom (IMG:https://metalarea.org/forum/style_images/flags/United%20Kingdom.png)
*Format: mp3@CBR320kbps
*Size: 86MB

Tracklist:
01. Rogue Mystic 05:54
02. The Ides Of March 06:58
03. The Warlock 07:46
04. Scarab 05:07
05. Reigning Hell 07:21
******************************
Total playing time: 33:06



(IMG:https://metalarea.org/images/youtube.png)

Technical info
(IMG:https://metalarea.org/images/spectrogram/2016_Sep/1828ae1b9b0820495d1a2434e373ce65.png)
Input File: 02. The Ides Of March.mp3
Channels : 2
Sample Rate : 44100
Precision : 16-bit
Duration : 00:06:58.08 = 18437284 samples = 31355.9 CDDA sectors
File Size : 18.8M
Bit Rate : 359k
Sample Encoding: MPEG audio (layer I, II or III)
Comments :
Title=The Ides Of March
Artist=Elder Druid
Album=Magicka [EP]
Tracknumber=02/05
Year=2016



Register


Go to the top of the page
  Insert nick Quick quote
+Quote Post
 
Start new topic
Replies (1 - 2)
post Oct 13 2016, 07:57:24
Post #2

No More Tears
**************
Group: Металариец
Posts: 5,014
Releases: 114
From: Тбилиси, Грузия
On Forums: 17 years 10 months
Thanks: 2451 time(s)
Georgia


Овратная обложка меня всегда отталкивает. Это тот случай.
А музыка низкотемповая но неплохая.


Thanks:
(1) WOLAND,
Go to the top of the page
  Insert nick Quick quote
+Quote Post
post Jun 24 2018, 00:27:02
Post #3

Правь статус, ####!111
**************
Group: Металариец
Posts: 55,976
Releases: 1200
On Forums: 14 years 11 months
Thanks: 54831 time(s)
Russian Federation


Да норм обложка бонг трава че еще надо?

Музло жиррное!
Go to the top of the page
  Insert nick Quick quote
+Quote Post

Reply to this topicStart new topic
2 User(s) are reading this topic (2 Guests and 0 Anonymous Users)
0 Members:

 



- Lo-Fi Version Support form
Copyrights and abuse reports form
Time is now: 26th May 2024 - 19:05:12