Welcome Guest ( Log In | Register )

> Social Shit - Inclemente Supremacía Infernal (2015), Death Metal/Grindcore (D)
post Oct 3 2016, 12:09:11
Post #1

Serial Uploader
Group Icon
Group: V.I.P
Posts: 37,601
Releases: 35773
From: Lithuania
On Forums: 13 years 1 week
Thanks: 432810 time(s)
Lithuania


(IMG:https://metalarea.org/images/audiocovers/2016_Oct/acov_tid275387_thumb.jpg)

*Artist: Social Shit
*Album: Inclemente Supremacía Infernal
*Year: 2015
*Genre: Death Metal/Grindcore
*Country: Argentina (IMG:https://metalarea.org/forum/style_images/flags/Argentina.png)
*Format: mp3@CBR320kbps
*Size: 72MB

Tracklist:
01. Intro/ Formas De Torturar 02:54
02. Atormentado 02:48
03. Deseo De Sangre 04:07
04. Odio Extremo 01:23
05. Enfermo Y Hermitaño 03:42
06. Grito 00:31
07. Máquina De Matar 02:14
08. Segado Por La Sangre 02:50
09. Sacrificados 03:00
10. Satisfacción Por Muertos 02:37
11. Excitado Por El Dolor/ Outro 05:26
******************************
Total playing time: 31:32

(IMG:https://metalarea.org/images/myspace.png)


(IMG:https://metalarea.org/images/youtube.png)

Technical info
(IMG:https://metalarea.org/images/spectrogram/2016_Oct/39ffcf2b1e67d423f336ce4e8d671043.png)
Input File: 02. Atormentado.mp3
Channels : 2
Sample Rate : 48000
Precision : 16-bit
Duration : 00:02:48.01 = 8064528 samples ~ 12600.8 CDDA sectors
File Size : 6.72M
Bit Rate : 320k
Sample Encoding: MPEG audio (layer I, II or III)
Comments :
Title=Atormentado
Artist=Social Shit
Album=Inclemente SupremacГ­a Infernal
Tracknumber=2
Year=2016



Register


Go to the top of the page
  Insert nick Quick quote
+Quote Post
 
Start new topic
Replies (1 - 1)
post Jun 11 2021, 15:46:27
Post #2

Going home. Flying high.
**************
Group: Металариец
Posts: 13,340
Releases: 0
From: The Land of Shadows
On Forums: 14 years 10 months
Thanks: 27000 time(s)
Russian Federation


from web
Register
Go to the top of the page
  Insert nick Quick quote
+Quote Post

Reply to this topicStart new topic
1 User(s) are reading this topic (1 Guests and 0 Anonymous Users)
0 Members:

 



- Lo-Fi Version Support form
Copyrights and abuse reports form
Time is now: 18th June 2021 - 07:27:17