Welcome Guest ( Log In | Register )

> Red Fang - Only Ghosts (2016), Stoner Metal/Rock (D6)
post Oct 5 2016, 17:56:24
Post #1

Три Литра
***
Group: Завсегдатай
Posts: 219
Releases: 150
On Forums: 9 years 6 months
Thanks: 1705 time(s)
Paraguay


(IMG:http://metalarea.org/images/audiocovers/2016_Oct/acov_tid275528_thumb.jpg)

*Artist: Red Fang
*Album: Only Ghosts
*Year: 2016
*Genre: Stoner Metal/Rock
*Country: United States (IMG:http://metalarea.org/forum/style_images/flags/United%20States.png)
*Format: mp3@CBR320kbps
*Size: 95MB

Tracklist:
01. Flies 03:38
02. Cut It Short 04:13
03. Flames 01:31
04. No Air 04:53
05. Shadows 03:12
06. Not For You 03:20
07. The Smell Of The Sound 05:24
08. The Deep 04:28
09. I Am A Ghost 04:09
10. Living In Lye 06:20
******************************
Total playing time: 41:08



Extended info
Red Fang:
Aaron Beam: Bass, Vocals.
Maurice Bryan Giles: Guitars, Vocals.
David Sullivan: Guitars, Vocals.
John Sherman: Drums.


Technical info
(IMG:http://metalarea.org/images/spectrogram/2016_Oct/04fab2aa09274d2381b458268c97b305.png)
Input File: 01 Flies.mp3
Channels : 2
Sample Rate : 44100
Precision : 16-bit
Duration : 00:03:38.77 = 9647889 samples = 16408 CDDA sectors
File Size : 8.88M
Bit Rate : 325k
Sample Encoding: MPEG audio (layer I, II or III)
Comments :
Title=Flies
Artist=Red Fang
Album=Only Ghosts
Tracknumber=1
Year=2016
Genre=Stoner Metal/Rock



Register


Go to the top of the page
  Insert nick Quick quote
+Quote Post
 
Start new topic
Replies (1 - 8)
post Oct 6 2016, 19:51:36
Post #2

Маньяк
**********
Group: Металариец
Posts: 1,295
Releases: 1
From: Беларусь
On Forums: 13 years 5 months
Thanks: 548 time(s)
Russian Federation


Файл заблокирован по просьбе правообладателя
Go to the top of the page
  Insert nick Quick quote
+Quote Post
post Oct 6 2016, 20:49:43
Post #3

Два Литра
**
Group: Завсегдатай
Posts: 105
Releases: 0
From: Rome, Italy
On Forums: 8 years 4 months
Thanks: 7 time(s)
Unknown


please re-up!
Go to the top of the page
  Insert nick Quick quote
+Quote Post
post Oct 6 2016, 22:42:29
Post #4

ΕΥΜΕΝΙΔΕΣ
**************
Group: Металариец
Posts: 2,463
Releases: 28
From: Kænugarður
On Forums: 14 years 4 months
Thanks: 3502 time(s)
Ukraine


Register


Thanks:
Go to the top of the page
  Insert nick Quick quote
+Quote Post
post Jan 12 2017, 16:14:47
Post #5

Шесть Литров
******
Group: Металариец
Posts: 679
Releases: 1
From: Россия, Санкт-Петербург
On Forums: 13 years 1 month
Thanks: 89 time(s)
Russian Federation


Товарищи, помогите, пожалуйста, с ссылкой
Go to the top of the page
  Insert nick Quick quote
+Quote Post
post Jan 12 2017, 16:26:40
Post #6

Going home. Flying high.
**************
Group: Металариец
Posts: 13,348
Releases: 0
From: The Land of Shadows
On Forums: 14 years 10 months
Thanks: 27035 time(s)
Russian Federation


уфф! в очередной раз хвала нашему всё-Дарку)) вот, даже с 2 бонусами:
Register



Thanks:
(1) J0k3r,
Go to the top of the page
  Insert nick Quick quote
+Quote Post
post Jan 19 2017, 14:32:01
Post #7

Шесть Литров
******
Group: Металариец
Posts: 679
Releases: 1
From: Россия, Санкт-Петербург
On Forums: 13 years 1 month
Thanks: 89 time(s)
Russian Federation


ЦИТАТА(sperminator @ 12th January 2017 - 18:26:40) *
уфф! в очередной раз хвала нашему всё-Дарку)) вот, даже с 2 бонусами:

Большое спасибо.
Go to the top of the page
  Insert nick Quick quote
+Quote Post
post Jun 15 2018, 11:49:32
Post #8

melofags sniper
**************
Group: Металариец
Posts: 6,265
Releases: 0
On Forums: 13 years 3 months
Thanks: 6883 time(s)
Unknown


any re up please ?
Go to the top of the page
  Insert nick Quick quote
+Quote Post
post Jun 15 2018, 11:51:39
Post #9

Правь статус, ####!111
**************
Group: Металариец
Posts: 48,882
Releases: 834
On Forums: 12 years 2 weeks
Thanks: 43648 time(s)
Russian Federation


@320

Register


Thanks:
Go to the top of the page
  Insert nick Quick quote
+Quote Post

Reply to this topicStart new topic
2 User(s) are reading this topic (2 Guests and 0 Anonymous Users)
0 Members:

 



- Lo-Fi Version Support form
Copyrights and abuse reports form
Time is now: 22nd June 2021 - 12:08:51