Welcome Guest ( Log In | Register )

> Kotiteollisuus - Vieraan Vallan Aurinko (2016), Progressive/Melodic Heavy Metal (D)
post Oct 13 2016, 18:04:54
Post #1

Аннигилятор пивА
Group Icon
Group: V.I.P
Posts: 52,360
Releases: 16550
From: Koenigsberg - TILZIT
On Forums: 15 years 7 months
Thanks: 368812 time(s)
Russian Federation


(IMG:https://metalarea.org/images/audiocovers/2016_Oct/acov_tid276026_thumb.jpg)

*Artist: Kotiteollisuus
*Album: Vieraan Vallan Aurinko
*Year: 2016
*Genre: Progressive/Melodic Heavy Metal
*Country: Finland (IMG:https://metalarea.org/forum/style_images/flags/Finland.png)
*Format: mp3@CBR320kbps
*Size: 121MB

Tracklist:
01. Pahuus Ja Viha
02. Ruumiinvalvojaiset
03. Varjoihmiset
04. Mariaanien hauta
05. Verta, Luuta Ja Lihaa
06. Viinamäki
07. Vainoharha
08. Syöt, Juot Ja Kuolet Pois
09. Kaiken Valtias
10. Maanalaiset
11. Vieraan Vallan Aurinko
******************************
Total playing time: 54:34



Extended info
Jouni Hynynen: laulu, kitara
Jari Sinkkonen: rummut
Janne Hongisto: basso
Miitri Aaltonen: kitara, taustalaulu (vuodesta 2014)


Technical info
(IMG:https://metalarea.org/images/spectrogram/2016_Oct/ff8ce2eaf9fd2b6e0754496b7284a94b.png)
Input File: 02. Ruumiinvalvojaiset.mp3
Channels : 2
Sample Rate : 44100
Precision : 16-bit
Duration : 00:04:01.19 = 10636391 samples = 18089.1 CDDA sectors
File Size : 9.72M
Bit Rate : 322k
Sample Encoding: MPEG audio (layer I, II or III)
Comments :
Title=Ruumiinvalvojaiset
Artist=Kotiteollisuus
Album=Vieraan Vallan Aurinko
Tracknumber=2
Discnumber=1



Register


Go to the top of the page
  Insert nick Quick quote
+Quote Post
 
Start new topic
Replies (1 - 1)
post Oct 19 2016, 16:57:54
Post #2

Мегаманьяк
***********
Group: Металариец
Posts: 1,780
Releases: 0
On Forums: 9 years 2 months
Thanks: 2666 time(s)
Russian Federation


Альтернативная ссылка
Register


Go to the top of the page
  Insert nick Quick quote
+Quote Post

Reply to this topicStart new topic
1 User(s) are reading this topic (1 Guests and 0 Anonymous Users)
0 Members:

 



- Lo-Fi Version Support form
Copyrights and abuse reports form
Time is now: 21st January 2022 - 00:15:23