Welcome Guest ( Log In | Register )

 
Reply to this topicStart new topic
> RUSCO - Demo [demo] (2016), Grindcore
post Oct 19 2016, 16:28:27
Post #1

Правь статус, ####!111
**************
Group: Металариец
Posts: 3,497
Releases: 1809
From: Земля
On Forums: 7 years 10 months
Thanks: 10027 time(s)
Russian Federation


(IMG:https://metalarea.org/images/audiocovers/2016_Oct/acov_tid276381_thumb.jpg)

*Artist: RUSCO
*Album: Demo [demo]
*Year: 2016
*Genre: Grindcore
*Country: Italy (IMG:https://metalarea.org/forum/style_images/flags/Italy.png)
*Format: mp3@CBR320kbps
*Size: 30MB

Tracklist:
1. Morto Schiavo 02:33
2. Informe 01:01
3. Individui in Secondo Piano 01:03
4. Non Ho Scelto 01:06
5. Intralcio al Tuo Egoismo 00:59
6. Tua Opinione, Mia Realtà 01:08
7. Peso Morto 01:00
8. Cloaca 01:31
9. Vuoto Latente 01:06
10. Consumo 01:04
******************************
Total playing time: 12:31



Technical info
(IMG:https://metalarea.org/images/spectrogram/2016_Oct/949c4fa611448c593f5179bab769b18c.png)
Input File: RUSCO - Demo 2016 - 01 Morto Schiavo.mp3
Channels : 2
Sample Rate : 44100
Precision : 16-bit
Duration : 00:02:33.09 = 6751313 samples = 11481.8 CDDA sectors
File Size : 6.19M
Bit Rate : 324k
Sample Encoding: MPEG audio (layer I, II or III)
Comments :
Title=Morto Schiavo
Artist=RUSCO
Album=Demo 2016
Tracknumber=1
Year=2016



Register


Thanks:
Go to the top of the page
  Insert nick Quick quote
+Quote Post

Reply to this topicStart new topic
1 User(s) are reading this topic (1 Guests and 0 Anonymous Users)
0 Members:

 



- Lo-Fi Version Support form
Copyrights and abuse reports form
Time is now: 20th January 2022 - 23:39:15