Welcome Guest ( Log In | Register )

> 

Здесь релизы с живыми прямыми ссылками на lossless

> Darkest Sins - The Broken (2016), Heavy Metal
post Oct 20 2016, 16:13:56
Post #1

Serial Uploader
Group Icon
Group: V.I.P
Posts: 37,580
Releases: 35752
From: Lithuania
On Forums: 12 years 11 months
Thanks: 432204 time(s)
Lithuania


(IMG:http://metalarea.org/images/audiocovers/2016_Oct/acov_tid276434_thumb.jpg)

*Artist: Darkest Sins
*Album: The Broken
*Year: 2016
*Genre: Heavy Metal
*Country: Norway (IMG:http://metalarea.org/forum/style_images/flags/Norway.png)
*Format: mp3@CBR320kbps
*Size: 102MB

Tracklist:
01. The Broken 06:45
02. Darkest Sins 05:07
03. Fear 04:28
04. Domineer 04:13
05. World on Fire 05:12
06. Rough Love 03:31
07. Slowly Dying 05:42
08. Far Away 11:18
******************************
Total playing time: 46:16

(IMG:http://metalarea.org/images/myspace.png)



Technical info
(IMG:http://metalarea.org/images/spectrogram/2016_Oct/0e55bc48bbde72800e320339db082019.png)
Input File: 03. Fear.mp3
Channels : 2
Sample Rate : 44100
Precision : 16-bit
Duration : 00:04:28.54 = 11842658 samples = 20140.6 CDDA sectors
File Size : 10.9M
Bit Rate : 323k
Sample Encoding: MPEG audio (layer I, II or III)
Comments :
Title=Fear
Artist=Darkest Sins
Album=The Broken
Tracknumber=3
Year=2016
Genre=Heavy Metal
Discnumber=1



Register


Go to the top of the page
  Insert nick Quick quote
+Quote Post
 
Start new topic
Replies (1 - 6)
post Oct 21 2016, 07:20:39
Post #2

hearer & reader
**************
Group: Металариец
Posts: 9,659
Releases: 172
From: Moscow
On Forums: 13 years 8 months
Thanks: 10729 time(s)
Russian Federation


На #8 должен быть Фабио Лионе...
Register

Остальное - в топку.
И да, это мелодик хэви.


Thanks:
(1) DenisKov,
Go to the top of the page
  Insert nick Quick quote
+Quote Post
post Oct 23 2016, 21:42:34
Post #3

MDM-Thrash Metal
**************
Group: Металариец
Posts: 10,326
Releases: 1226
From: Одесса
On Forums: 13 years 9 months
Thanks: 30039 time(s)
Ukraine


Уж слишком сопливый мелодик хеви
Go to the top of the page
  Insert nick Quick quote
+Quote Post
post Oct 24 2016, 06:47:37
Post #4

Ъ
**************
Group: Металариец
Posts: 10,574
Releases: 9
On Forums: 12 years 4 months
Thanks: 2168 time(s)
Sweden


Не переношу эти писклявые вокалы, в музыку даже не вслушивался.
Go to the top of the page
  Insert nick Quick quote
+Quote Post
post Oct 24 2016, 10:21:54
Post #5

Мегаманьяк
***********
Group: Металариец
Posts: 1,780
Releases: 0
On Forums: 8 years 6 months
Thanks: 2655 time(s)
Russian Federation


Альтернативная ссылка
Register


Go to the top of the page
  Insert nick Quick quote
+Quote Post
post Apr 8 2021, 05:23:42
Post #6

Два Литра
**
Group: Завсегдатай
Posts: 167
Releases: 0
From: Russian Federation
On Forums: 14 years 8 months
Thanks: 3 time(s)
Russian Federation


Thank you very much, but unfortunately the link is no longer available (IMG:style_emoticons/default/6.gif)
Can anyone help?
Go to the top of the page
  Insert nick Quick quote
+Quote Post
post Apr 13 2021, 11:49:49
Post #7

Group Icon
Group: S-moderation team
Posts: 20,773
Releases: 1443
From: Zagreb
On Forums: 10 years 2 months
Thanks: 95191 time(s)
Croatia


Register
Register


Thanks:
Go to the top of the page
  Insert nick Quick quote
+Quote Post

Reply to this topicStart new topic
1 User(s) are reading this topic (1 Guests and 0 Anonymous Users)
0 Members:

 



- Lo-Fi Version Support form
Copyrights and abuse reports form
Time is now: 14th May 2021 - 18:30:45