Welcome Guest ( Log In | Register )

> Flom - Elders [ep] (2016), Progressive Death/Doom Metal
post Oct 23 2016, 03:05:15
Post #1

Аннигилятор пивА
Group Icon
Group: V.I.P
Posts: 52,360
Releases: 16550
From: Koenigsberg - TILZIT
On Forums: 15 years 4 months
Thanks: 368300 time(s)
Russian Federation


(IMG:https://metalarea.org/images/audiocovers/2016_Oct/acov_tid276584_thumb.jpg)

*Artist: Flom
*Album: Elders [ep]
*Year: 2016
*Genre: Progressive Death/Doom Metal
*Country: Norway (IMG:https://metalarea.org/forum/style_images/flags/Norway.png)
*Format: mp3@CBR320kbps
*Size: 38MB

Tracklist:
1. Head On 04:37
2. Elders 03:31
3. The Letter 04:11
4. Razor 03:54
******************************
Total playing time: 16:13



Extended info
весьма необычная комбинация, этакий математический дум/дэт
Per-Kristian Vinje (guitars, bass, vocals)
Lars Ødegård (drums)




Technical info
(IMG:https://metalarea.org/images/spectrogram/2016_Oct/50f82e9c6ecfdcc8004169eb5d3501b2.png)
Input File: 02 Elders.mp3
Channels : 2
Sample Rate : 44100
Precision : 16-bit
Duration : 00:03:31.64 = 9333192 samples = 15872.8 CDDA sectors
File Size : 8.61M
Bit Rate : 326k
Sample Encoding: MPEG audio (layer I, II or III)
Comments :
Title=Elders
Artist=Flom
Album=Elders
Tracknumber=2
Year=2016



Register


Go to the top of the page
  Insert nick Quick quote
+Quote Post
 
Start new topic
Replies (1 - 1)
post Nov 27 2016, 13:18:42
Post #2

ME[ta]LLOMAN
**************
Group: Металариец
Posts: 5,017
Releases: 3
From: Avdeyevka
On Forums: 15 years 6 months
Thanks: 2068 time(s)
Honduras


шо не трацк, то колбасяо (IMG:style_emoticons/default/9.gif)
маломаломаловато..


Thanks:
Go to the top of the page
  Insert nick Quick quote
+Quote Post

Reply to this topicStart new topic
2 User(s) are reading this topic (2 Guests and 0 Anonymous Users)
0 Members:

 



- Lo-Fi Version Support form
Copyrights and abuse reports form
Time is now: 16th October 2021 - 10:03:01