Welcome Guest ( Log In | Register )

> Junior Bruce - Endless Descent (2016), Stoner Metal/Sludge
post Oct 30 2016, 13:50:00
Post #1

Serial Uploader
Group Icon
Group: V.I.P
Posts: 37,676
Releases: 35843
From: Lithuania
On Forums: 13 years 4 months
Thanks: 434945 time(s)
Lithuania


(IMG:http://metalarea.org/images/audiocovers/2016_Oct/acov_tid277049_thumb.jpg)

*Artist: Junior Bruce
*Album: Endless Descent
*Year: 2016
*Genre: Stoner Metal/Sludge
*Country: United States (IMG:http://metalarea.org/forum/style_images/flags/United%20States.png)
*Format: mp3@CBR320kbps
*Size: 101MB

Tracklist:
01. Lapis Philosophorum
02. Lion's Teeth
03. Thirteen Zeros
04. Of the Deep
05. Of the Earth
06. The Worthless Ones
07. Interlude
08. Night Hag
09. Lesser Key
10. Endless Descent
******************************
Total playing time: 33:56



Technical info
(IMG:http://metalarea.org/images/spectrogram/2016_Oct/372dddc08421ecf90e8295b3018a71bf.png)
Input File: 02. Lion's Teeth.mp3
Channels : 2
Sample Rate : 44100
Precision : 16-bit
Duration : 00:04:10.88 = 11063808 samples = 18816 CDDA sectors
File Size : 10.2M
Bit Rate : 324k
Sample Encoding: MPEG audio (layer I, II or III)
Comments :
Title=Lion's Teeth
Artist=Junior Bruce
Album=Endless Descent
Tracknumber=2/10
Year=2016



Register


Go to the top of the page
  Insert nick Quick quote
+Quote Post
 
Start new topic
Replies (1 - 4)
post Oct 30 2016, 15:10:30
Post #2

ME[ta]LLOMAN
**************
Group: Металариец
Posts: 5,018
Releases: 3
From: Avdeyevka
On Forums: 15 years 6 months
Thanks: 2070 time(s)
Honduras




Thanks:
(1) djsema4,
Go to the top of the page
  Insert nick Quick quote
+Quote Post
post Oct 30 2016, 17:28:43
Post #3

Up From The Grave
********
Group: Металариец
Posts: 893
Releases: 122
From: Minsk
On Forums: 12 years 3 months
Thanks: 2415 time(s)
Belarus


Go to the top of the page
  Insert nick Quick quote
+Quote Post
post Oct 31 2016, 19:00:35
Post #4

MélöManiäc
*****
Group: Металариец
Posts: 472
Releases: 37
From: КубанЬ
On Forums: 12 years 9 months
Thanks: 837 time(s)
Russian Federation


Грамотный релиз. (IMG:style_emoticons/default/genius.gif)
Go to the top of the page
  Insert nick Quick quote
+Quote Post
post Nov 1 2016, 03:34:18
Post #5

Going home. Flying high.
**************
Group: Металариец
Posts: 13,527
Releases: 0
From: The Land of Shadows
On Forums: 15 years 2 months
Thanks: 27870 time(s)
Russian Federation


from the web, 320 kbps
Register


Thanks:
Go to the top of the page
  Insert nick Quick quote
+Quote Post

Reply to this topicStart new topic
1 User(s) are reading this topic (1 Guests and 0 Anonymous Users)
0 Members:

 



- Lo-Fi Version Support form
Copyrights and abuse reports form
Time is now: 25th October 2021 - 21:57:30