Welcome Guest ( Log In | Register )

> Inner Sanctum - Principle Leader (2011), Melodic Death Metal (D18)
post Oct 31 2016, 14:03:24
Post #1

Serial Uploader
Group Icon
Group: V.I.P
Posts: 37,608
Releases: 35780
From: Lithuania
On Forums: 13 years 1 month
Thanks: 433174 time(s)
Lithuania


(IMG:http://metalarea.org/images/audiocovers/2016_Oct/acov_tid277111_thumb.jpg)

*Artist: Inner Sanctum
*Album: Principle Leader
*Year: 2011
*Genre: Melodic Death Metal
*Country: Germany (IMG:http://metalarea.org/forum/style_images/flags/Germany.png)
*Format: mp3@CBR320kbps
*Size: 143MB

Tracklist:
01. 9th Sphere 03:26
02. Storm 05:39
03. Path Of Life 05:21
04. Devil May Care 06:08
05. Selfmade Saviour 04:08
06. Breed 06:13
07. Dark Angel Sanctuary 07:37
08. Chapter: Grey 03:29
09. Across The Sea 07:03
10. Interlude 02:04
11. A Breath Of Ashes And Snow 06:39
12. Until They Returned (Bonus Track) 04:49
******************************
Total playing time: 1:02:36

(IMG:http://metalarea.org/images/myspace.png)



(IMG:http://metalarea.org/images/youtube.png)

Technical info
(IMG:http://metalarea.org/images/spectrogram/2016_Oct/4767996313de819b392c3d1ed02d6347.png)
Input File: 07. Dark Angel Sanctuary.mp3
Channels : 2
Sample Rate : 44100
Precision : 16-bit
Duration : 00:07:38.26 = 20209090 samples = 34369.2 CDDA sectors
File Size : 18.4M
Bit Rate : 321k
Sample Encoding: MPEG audio (layer I, II or III)
Comments :
Title=Dark Angel Sanctuary
Artist=Inner Sanctum
Album=Principle Leader
Tracknumber=7/12
Year=2011



Register


Go to the top of the page
  Insert nick Quick quote
+Quote Post
 
Start new topic
Replies (1 - 2)
post Jul 22 2021, 07:07:32
Post #2

Три Литра
***
Group: Завсегдатай
Posts: 283
Releases: 0
From: Russian Federation
On Forums: 14 years 10 months
Thanks: 19 time(s)
Russian Federation


Thank you very much, but unfortunately the release is no longer available (IMG:style_emoticons/default/6.gif)
Can anyone help?
Go to the top of the page
  Insert nick Quick quote
+Quote Post
post Jul 22 2021, 12:24:50
Post #3

Правь статус, ####!111
**************
Group: Металариец
Posts: 3,510
Releases: 13
From: South Of Heaven
On Forums: 10 years 10 months
Thanks: 3876 time(s)
Russian Federation


320kb/144MB

Register
Go to the top of the page
  Insert nick Quick quote
+Quote Post

Reply to this topicStart new topic
1 User(s) are reading this topic (1 Guests and 0 Anonymous Users)
0 Members:

 



- Lo-Fi Version Support form
Copyrights and abuse reports form
Time is now: 27th July 2021 - 19:46:40