Welcome Guest ( Log In | Register )

> Midgard - Wolf Clan (2016), Folk/Viking/Death Metal (D5)
post Nov 3 2016, 03:36:48
Post #1

Serial Uploader
Group Icon
Group: V.I.P
Posts: 37,603
Releases: 35775
From: Lithuania
On Forums: 13 years 2 weeks
Thanks: 432914 time(s)
Lithuania


(IMG:http://metalarea.org/images/audiocovers/2016_Nov/acov_tid277301_thumb.jpg)

*Artist: Midgard
*Album: Wolf Clan
*Year: 2016
*Genre: Folk/Viking/Death Metal
*Country: Ukraine (IMG:http://metalarea.org/forum/style_images/flags/Ukraine.png)
*Format: mp3@CBR320kbps
*Size: 105MB

Tracklist:
01. Berserk 03:05
02. The Witcher 05:08
03. Horovod 03:01
04. Wolf Clan 03:01
05. Hero 03:02
06. Ritual 03:10
07. Pyre song 04:38
08. Last frontier 02:52
09. Warlock 03:42
10. Dark wind 03:37
11. Black drakkar 04:14
12. Runes 03:06
******************************
Total playing time: 42:36






Technical info
(IMG:http://metalarea.org/images/spectrogram/2016_Nov/b4f5ba4d8624eec86ae9823586dbe9e2.png)
Input File: 02. The Witcher.mp3
Channels : 2
Sample Rate : 44100
Precision : 16-bit
Duration : 00:05:08.51 = 13605379 samples = 23138.4 CDDA sectors
File Size : 12.3M
Bit Rate : 320k
Sample Encoding: MPEG audio (layer I, II or III)
Comments :
Title=The Witcher
Artist=Midgard
Album=Wolf Clan
Tracknumber=2
Year=2016



Register


Go to the top of the page
  Insert nick Quick quote
+Quote Post
 
Start new topic
Replies (1 - 4)
romanov
post Nov 4 2016, 06:36:29
Post #2

Guests team






Register


Thanks:
Go to the top of the page
  Insert nick Quick quote
+Quote Post
post Feb 19 2017, 23:38:10
Post #3

FOLK METAL FEVER
**************
Group: Металариец
Posts: 2,222
Releases: 6
From: Kyiv
On Forums: 13 years 7 months
Thanks: 290 time(s)
Ukraine


Якість запису порадувала, однак сам матеріал доволі вторинний та одноманітний.


Thanks:
(1) aserius,
Go to the top of the page
  Insert nick Quick quote
+Quote Post
post May 4 2017, 18:14:47
Post #4

Два Литра
**
Group: Завсегдатай
Posts: 133
Releases: 1
On Forums: 9 years 3 months
Thanks: 78 time(s)
Russian Federation


Даже странно что так мало комментариев. Довольно-таки разноплановый материал, при всей своей простоте не уступающий по убойности новинкам от Винтерсан и Алешторм вместе взятым(IMG:style_emoticons/default/dwarf-1.gif)


Первые два трека наименее удачные как по мне. Версия 2017го года (IMG:style_emoticons/default/20.gif) (IMG:style_emoticons/default/20.gif) (IMG:style_emoticons/default/20.gif)
Register


Thanks:
Go to the top of the page
  Insert nick Quick quote
+Quote Post
post May 12 2017, 15:35:20
Post #5

Волк без яблока
**************
Group: Металариец
Posts: 13,601
Releases: 108
From: Санкт-Петербург
On Forums: 14 years 9 months
Thanks: 15872 time(s)
Russian Federation


Есть неплохие запилы, но всё очень сыро, да и с такой записью слушать это нет смысла. Музыки в этом ключе, намного более профессиональной и интересной, и без того достаточно.
Go to the top of the page
  Insert nick Quick quote
+Quote Post

Reply to this topicStart new topic
2 User(s) are reading this topic (2 Guests and 0 Anonymous Users)
0 Members:

 



- Lo-Fi Version Support form
Copyrights and abuse reports form
Time is now: 25th June 2021 - 11:25:40