Welcome Guest ( Log In | Register )

> Masquerader - Vortex Day Zero (2016), Progressive/Thrash Metal
post Nov 10 2016, 03:20:16
Post #1

Правь статус, ####!111
**************
Group: Металариец
Posts: 18,597
Releases: 12591
From: Г.Харьков
On Forums: 7 years 4 months
Thanks: 213288 time(s)
Unknown


(IMG:http://metalarea.org/images/audiocovers/2016_Nov/acov_tid277708_thumb.jpg)

*Artist: Masquerader
*Album: Vortex Day Zero
*Year: 2016
*Genre: Progressive/Thrash Metal
*Country: Taiwan (IMG:http://metalarea.org/forum/style_images/flags/Taiwan.png)
*Format: mp3@CBR320kbps
*Size: 129MB

Tracklist:
1. Steady State 01:18
2. Fast Forward Genesis 05:07
3. Second Guessing 06:34
4. Anonymous Existence 05:32
5. Standard Protocol 01:21
6. Rehabilitation Sequence 03:40
7. Exit Wound 03:43
8. A Minute Past Midnight 05:05
9. Incompatible Override 04:56
10. System Overload 04:30
11. Dream Escape 07:26
12. Rabbit Hole Singularity 07:33
******************************
Total playing time: 56:45

(IMG:http://metalarea.org/images/youtube.png)


Technical info
(IMG:http://metalarea.org/images/spectrogram/2016_Nov/dec1d2bfa324fe333f254bbd661b07b4.png)
Input File: 04 - Anonymous Existence.mp3
Channels : 2
Sample Rate : 44100
Precision : 16-bit
Duration : 00:05:31.82 = 14633042 samples = 24886.1 CDDA sectors
File Size : 13.3M
Bit Rate : 322k
Sample Encoding: MPEG audio (layer I, II or III)
Comments :
Title=Anonymous Existence
Artist=Masquerader
Album=Vortex Day Zero
Tracknumber=4/12
Year=2016
Genre=Thrash Metal
Discnumber=1



Register


Go to the top of the page
  Insert nick Quick quote
+Quote Post
 
Start new topic
Replies (1 - 6)
post Nov 10 2016, 12:57:23
Post #2

Аннигилятор пивА
Group Icon
Group: V.I.P
Posts: 52,358
Releases: 16557
From: Koenigsberg - TILZIT
On Forums: 13 years 3 months
Thanks: 362292 time(s)
Russian Federation


Это скорее авангард трэш плюс можно еще индастриал в стиль добавить, интересная группа, но на любителя че-нить закрученно-неопределенного...из похожего можно упомянуть воивод, только менее психоделично и более рафинированно-механически что-ли хотя они частенько по ходу разбавляют сей абракадабр акустическими и хэви проходами, есть так же привкус присущий азиатскому вижуал кей миталу.

320/133mb
Register

или
Register

или
Register


Go to the top of the page
  Insert nick Quick quote
+Quote Post
post Nov 10 2016, 13:58:09
Post #3

Восемь Литров
********
Group: Металариец
Posts: 829
Releases: 0
From: China
On Forums: 11 years 8 months
Thanks: 574 time(s)
Bulgaria


Very good weird, avantgarde thrash similar to the Italians Braindamage and, respectively, mid-90's Voivod. There are a lot of sudden time and tempo-shifts akin to Watchtower and the Germans Deathrow. A lot of things happening within a short span of time, not for those who like their music easy and immediate.


Thanks:
(1) AHBAnep,
Go to the top of the page
  Insert nick Quick quote
+Quote Post
post Nov 10 2016, 21:22:42
Post #4

Это просто место… где все подошло к концу.
**************
Group: Металариец
Posts: 5,600
Releases: 0
From: Страны Мамонтов
On Forums: 12 years 7 months
Thanks: 1985 time(s)
Antarctica


ЦИТАТА(aesteticvice @ Nov 10 2016, 14:57:23) *
Это скорее авангард трэш плюс можно еще индастриал в стиль добавить, интересная группа, но на любителя че-нить закрученно-неопределенного...из похожего можно упомянуть воивод, только менее психоделично и более рафинированно-механически что-ли хотя они частенько по ходу разбавляют сей абракадабр акустическими и хэви проходами, есть так же привкус присущий азиатскому вижуал кей миталу.

В общем, не для любителей нормальной музыки (IMG:style_emoticons/default/1488.gif)
Go to the top of the page
  Insert nick Quick quote
+Quote Post
post Aug 21 2019, 04:36:40
Post #5

Group: Дух
Posts: 8
Releases: 0
On Forums: 1 year 6 months
Thanks: 1 time(s)
United States


Please reupload. Thanks!
Go to the top of the page
  Insert nick Quick quote
+Quote Post
post Aug 21 2019, 14:22:57
Post #6
BAN
Banned till
Oct 7 2019, 23:44:15



ЦИТАТА(daisysaber @ Aug 21 2019, 07:36:40) *
Please reupload. Thanks!


Write topicstarter PM, he`s always fast to reup. (IMG:style_emoticons/default/bye.gif)
Go to the top of the page
  Insert nick Quick quote
+Quote Post
post Aug 23 2019, 09:34:39
Post #7


Group Icon
Group: S-moderation team
Posts: 11,576
Releases: 1438
From: Zagreb
On Forums: 8 years 6 months
Thanks: 49804 time(s)
Croatia


Register


Thanks:
Go to the top of the page
  Insert nick Quick quote
+Quote Post

Reply to this topicStart new topic
2 User(s) are reading this topic (2 Guests and 0 Anonymous Users)
0 Members:

 



- Lo-Fi Version Support form
Copyrights and abuse reports form
Time is now: 22nd September 2019 - 00:40:35