Welcome Guest ( Log In | Register )

> И неформату есть предел.

Рэп/хип-хоп/шансон/поп удаляются. Для них есть свои порталы.

> Terco - Demo [demo] (2016), Powerviolence/Hardcore Punk
post Nov 13 2016, 12:46:10
Post #1

Правь статус, ####!111
**************
Group: Металариец
Posts: 3,497
Releases: 1810
From: Земля
On Forums: 6 years 2 months
Thanks: 9952 time(s)
Russian Federation


(IMG:https://metalarea.org/images/audiocovers/2016_Nov/acov_tid277905_thumb.jpg)

*Artist: Terco
*Album: Demo [demo]
*Year: 2016
*Genre: Powerviolence/Hardcore Punk
*Country: Colombia (IMG:https://metalarea.org/forum/style_images/flags/Colombia.png)
*Format: mp3@CBR320kbps
*Size: 16MB

Tracklist:
1. La Ley Del Talión 02:20
2. Lo difícil De Ser Mujer 01:12
3. Agujas 01:05
4. Podros 01:30
5. Catarsis 00:24
******************************
Total playing time: 6:31



Technical info
(IMG:https://metalarea.org/images/spectrogram/2016_Nov/e0fdf43e790132d1438cfbd2b0f3895e.png)
Input File: Terco - Demo S-T - 01 La Ley Del Tali?n.mp3
Channels : 2
Sample Rate : 44100
Precision : 16-bit
Duration : 00:02:20.71 = 6205223 samples = 10553.1 CDDA sectors
File Size : 5.81M
Bit Rate : 330k
Sample Encoding: MPEG audio (layer I, II or III)
Comments :
Title=La Ley Del TaliГіn
Artist=Terco
Album=Demo S/T
Tracknumber=1
Year=2016



Register
Go to the top of the page
  Insert nick Quick quote
+Quote Post
 
Start new topic
Replies (1 - 1)
post Nov 13 2016, 13:05:31
Post #2

\m/
Group Icon
Group: S-moderation team
Posts: 7,789
Releases: 19
From: Петропавловск-Камчатский
On Forums: 10 years 11 months
Thanks: 7599 time(s)
Russian Federation


По графику - транскод, но на кампе группы они предлагают скачать во всех форматах (бесплатно). Не думаю что сама группа будет постить собственный релиз как транскод. Похоже это качество записи такое.
Go to the top of the page
  Insert nick Quick quote
+Quote Post

Reply to this topicStart new topic
1 User(s) are reading this topic (1 Guests and 0 Anonymous Users)
0 Members:

 



- Lo-Fi Version Support form
Copyrights and abuse reports form
Time is now: 28th May 2020 - 20:11:33