Welcome Guest ( Log In | Register )

> Spell Forest - Amentia Ludibrium Tenebris (2016), Black Metal
post Nov 17 2016, 08:10:06
Post #1

Serial Uploader
Group Icon
Group: V.I.P
Posts: 36,465
Releases: 34653
From: Lithuania
On Forums: 11 years 5 months
Thanks: 404864 time(s)
Lithuania


(IMG:http://metalarea.org/images/audiocovers/2016_Nov/acov_tid278123_thumb.jpg)

*Artist: Spell Forest
*Album: Amentia Ludibrium Tenebris
*Year: 2016
*Genre: Black Metal
*Country: Brazil (IMG:http://metalarea.org/forum/style_images/flags/Brazil.png)
*Format: mp3@CBR320kbps
*Size: 101MB

Tracklist:
01. O Poder Invisível Do Caminho Pervertido 01:56
02. My Insanity Becomes Wisdom 06:07
03. Dementia Inlusio Tenebris 04:37
04. My Call Of Hate 06:32
05. Per Triangulum Autem Serpentis Nefarium 06:00
06. Belial Dominus Deorum 06:20
******************************
Total playing time: 31:32



Technical info
(IMG:http://metalarea.org/images/spectrogram/2016_Nov/fdf460d384ab1c8d4a4c2eda1491bd27.png)
Input File: 02. My Insanity Becomes Wisdom.mp3
Channels : 2
Sample Rate : 44100
Precision : 16-bit
Duration : 00:06:08.02 = 16229858 samples = 27601.8 CDDA sectors
File Size : 16.3M
Bit Rate : 355k
Sample Encoding: MPEG audio (layer I, II or III)
Comments :
Title=My Insanity Becomes Wisdom
Artist=Drakkar Productions Official
Album=SPELL FOREST : Amentia Ludibrium Tenebris
Tracknumber=2
Year=2016



Register


Go to the top of the page
  Insert nick Quick quote
+Quote Post
 
Start new topic
Replies (1 - 5)
post Nov 17 2016, 11:53:55
Post #2

\m/
Group Icon
Group: S-moderation team
Posts: 7,703
Releases: 19
From: Петропавловск-Камчатский
On Forums: 10 years 5 months
Thanks: 7284 time(s)
Russian Federation


Местами на Naglfar похожи.
Go to the top of the page
  Insert nick Quick quote
+Quote Post
post Nov 17 2016, 11:58:39
Post #3

Аннигилятор пивА
Group Icon
Group: V.I.P
Posts: 52,358
Releases: 16555
From: Koenigsberg - TILZIT
On Forums: 13 years 5 months
Thanks: 363026 time(s)
Russian Federation


320/81mb без 20мб мусора вшитого
Register


Go to the top of the page
  Insert nick Quick quote
+Quote Post
post Nov 17 2016, 12:02:24
Post #4

Going home. Flying high.
**************
Group: Металариец
Posts: 12,947
Releases: 0
From: The Land of Shadows
On Forums: 13 years 3 months
Thanks: 21971 time(s)
Russian Federation


тащемта, это уже заслуженные деятели чёрной металлургии)) с начала 2000х полноформатно колбасят!
а клавишник/гитарист и вовсе, успел засветиться даже на дебютнике Pentacrostic
Go to the top of the page
  Insert nick Quick quote
+Quote Post
post Nov 29 2016, 19:12:51
Post #5

i listen to black metal
**************
Group: Металариец
Posts: 2,439
Releases: 129
From: Москва-Лианозово
On Forums: 12 years 10 months
Thanks: 2074 time(s)
Russian Federation


а что тут говорить- сразу в папку Лучшее!
Go to the top of the page
  Insert nick Quick quote
+Quote Post
post Apr 5 2018, 14:42:50
Post #6

7 литров
*****
Group: Металариец
Posts: 460
Releases: 0
On Forums: 12 years 3 months
Thanks: 224 time(s)
Ukraine


reup pls
Go to the top of the page
  Insert nick Quick quote
+Quote Post

Reply to this topicStart new topic
1 User(s) are reading this topic (1 Guests and 0 Anonymous Users)
0 Members:

 



- Lo-Fi Version Support form
Copyrights and abuse reports form
Time is now: 20th November 2019 - 07:50:08