Welcome Guest ( Log In | Register )

> Antikythera - Antikythera [Promo ep] (2016), Progressive Melodic Death Metal
post Nov 20 2016, 05:13:17
Post #1

Аннигилятор пивА
Group Icon
Group: V.I.P
Posts: 52,432
Releases: 16544
From: Koenigsberg - TILZIT
On Forums: 16 years 8 months
Thanks: 370392 time(s)
Russian Federation


(IMG:https://metalarea.org/images/audiocovers/2016_Nov/acov_tid278313_thumb.jpg)

*Artist: Antikythera
*Album: Antikythera [Promo ep]
*Year: 2016
*Genre: Progressive Melodic Death Metal
*Country: United States (IMG:https://metalarea.org/forum/style_images/flags/United%20States.png)
*Format: mp3@CBR320kbps
*Size: 21MB

Tracklist:
1. Locked Cabin Doors 04:14
2. LightKeeper 04:43
******************************
Total playing time: 8:57




Technical info
(IMG:https://metalarea.org/images/spectrogram/2016_Nov/cc9d96f01771eafbbf5821c1aabc6c85.png)
Input File: Antikythera - Antikythera - 02 Locked Cabin Doors.mp3
Channels : 2
Sample Rate : 44100
Precision : 16-bit
Duration : 00:04:12.42 = 11131766 samples = 18931.6 CDDA sectors
File Size : 10.2M
Bit Rate : 322k
Sample Encoding: MPEG audio (layer I, II or III)
Comments :
Title=Locked Cabin Doors
Artist=Antikythera
Album=Antikythera
Tracknumber=2
Year=2016



Register


Go to the top of the page
  Insert nick Quick quote
+Quote Post
 
Start new topic
Replies (1 - 3)
post Nov 30 2016, 21:50:03
Post #2

Шесть Литров
******
Group: Металариец
Posts: 575
Releases: 2
From: Санкт-Петербург
On Forums: 15 years 3 months
Thanks: 181 time(s)
Russian Federation


Согласно Bandcamp и метал-архивам, в релизе должно быть 5 трэков, а не 2.


Thanks:
Go to the top of the page
  Insert nick Quick quote
+Quote Post
post Jan 31 2019, 16:59:04
Post #3

Group: Подсевший
Posts: 34
Releases: 0
From: Львів!
On Forums: 4 years 1 month
Thanks: 20 time(s)
Ukraine


ЦИТАТА(grinderrr @ Nov 30 2016, 22:50:03) *
Согласно Bandcamp и метал-архивам, в релизе должно быть 5 трэков, а не 2.

Сто процентов!!! Где взять весь???








Go to the top of the page
  Insert nick Quick quote
+Quote Post
post Aug 30 2019, 19:03:15
Post #4

Правь статус, ####!111
**************
Group: Металариец
Posts: 4,797
Releases: 41
On Forums: 5 years 3 months
Thanks: 13257 time(s)
Unknown


Треклист:
1-Exiled from Elysium
2-Locked Cabin Doors
3-A Wanderer's Dream
4-LightKeeper
5-Vagrant Hearts

Register


Thanks:
Go to the top of the page
  Insert nick Quick quote
+Quote Post

Reply to this topicStart new topic
2 User(s) are reading this topic (2 Guests and 0 Anonymous Users)
0 Members:

 



- Lo-Fi Version Support form
Copyrights and abuse reports form
Time is now: 9th February 2023 - 13:57:59