Welcome Guest ( Log In | Register )

> Genus Ordinis Dei - Genus Ordinis Dei [ep] (2014), Symphonic Melodic Death Metal/Deathcore
post Nov 21 2016, 20:43:42
Post #1

Thrash, Beer & Violence
**************
Group: Металариец
Posts: 5,503
Releases: 2772
From: Крестов Брод (Russland)
On Forums: 14 years 1 month
Thanks: 40814 time(s)
Russian Federation


(IMG:http://metalarea.org/images/audiocovers/2016_Nov/acov_tid278416_thumb.jpg)

*Artist: Genus Ordinis Dei
*Album: Genus Ordinis Dei [ep]
*Year: 2014
*Genre: Symphonic Melodic Death Metal/Deathcore
*Country: Italy (IMG:http://metalarea.org/forum/style_images/flags/Italy.png)
*Format: mp3@CBR320kbps
*Size: 50MB

Tracklist:
1. From the Ashes 04:25
2. Embracing the Earth 04:12
3. Of Honor and Stone 04:45
4. That Beast Astray 03:31
5. Red Snake 04:35
******************************
Total playing time: 21:28


HomePage
(IMG:http://metalarea.org/images/youtube.png)

Extended info


Technical info
(IMG:http://metalarea.org/images/spectrogram/2016_Nov/7e0d23412fbb874e7e097d1df3583b12.png)
Input File: 01 - From the Ashes.mp3
Channels : 2
Sample Rate : 44100
Precision : 16-bit
Duration : 00:04:25.72 = 11718076 samples = 19928.7 CDDA sectors
File Size : 10.7M
Bit Rate : 322k
Sample Encoding: MPEG audio (layer I, II or III)
Comments :
Title=From the Ashes
Artist=Genus Ordinis Dei
Album=EP 2014
Tracknumber=1/5
Year=2014
Genre=Rock
Discnumber=1/1



Register


Go to the top of the page
  Insert nick Quick quote
+Quote Post
 
Start new topic
Replies (1 - 2)
post Oct 11 2021, 19:44:48
Post #2

Group: Подсевший
Posts: 44
Releases: 0
On Forums: 2 years 6 months
Thanks: 1 time(s)
Russian Federation


Genus Ordinis Dei- Genus Ordinis Dei [ep]а есть такой в LOSSLES?
Go to the top of the page
  Insert nick Quick quote
+Quote Post
post Oct 13 2021, 19:13:07
Post #3

Семь Литров
*******
Group: Металариец
Posts: 721
Releases: 148
On Forums: 2 years 6 months
Thanks: 2851 time(s)
Russian Federation


mp3@CBR320kbps

Register


Thanks:
Go to the top of the page
  Insert nick Quick quote
+Quote Post

Reply to this topicStart new topic
1 User(s) are reading this topic (1 Guests and 0 Anonymous Users)
0 Members:

 



- Lo-Fi Version Support form
Copyrights and abuse reports form
Time is now: 5th December 2021 - 03:08:32