Welcome Guest ( Log In | Register )

> Leprous - Live At Rockefeller Music Hall [live] (2016), Progressive Metal
post Nov 25 2016, 10:30:10
Post #1

Аннигилятор пивА
Group Icon
Group: V.I.P
Posts: 52,360
Releases: 16551
From: Koenigsberg - TILZIT
On Forums: 13 years 8 months
Thanks: 364172 time(s)
Russian Federation


(IMG:http://metalarea.org/images/audiocovers/2016_Nov/acov_tid278614_thumb.jpg)

*Artist: Leprous
*Album: Live At Rockefeller Music Hall [live]
*Year: 2016
*Genre: Progressive Metal
*Country: Norway (IMG:http://metalarea.org/forum/style_images/flags/Norway.png)
*Format: mp3@CBR320kbps
*Size: 236MB

Tracklist:
Disc 1:
01. The Flood 08:01
02. Foe 03:08
03. Third Law 06:15
04. Rewind 07:15
05. The Cloak 04:11
06. Acquired Taste 06:53
07. Red 06:40
08. Slave 09:09
Disc 2:
09. The Price 05:34
10. Moon 07:46
11. Down 06:29
12. The Valley 07:39
13. Forced Entry 10:45
14. Contaminate Me 10:18
******************************
Total playing time: 1:40:03



Extended info
Flac-Rip
Recorded live at a hometown show in Oslo on June 4 of 2016


Technical info
(IMG:http://metalarea.org/images/spectrogram/2016_Nov/b2b27dba91bb5f951514e21c598d7e32.png)
Input File: 03. Third Law (Live At Rockefeller Music Hall).mp3
Channels : 2
Sample Rate : 44100
Precision : 16-bit
Duration : 00:06:15.21 = 16546673 samples = 28140.6 CDDA sectors
File Size : 15.3M
Bit Rate : 326k
Sample Encoding: MPEG audio (layer I, II or III)
Comments :
Title=Third Law (Live At Rockefeller Music Hall)
Artist=Leprous
Album=Live At Rockefeller Music Hall
Tracknumber=3
Year=2016
Discnumber=1/2



Register


Go to the top of the page
  Insert nick Quick quote
+Quote Post
 
Start new topic
Replies (1 - 4)
post Dec 4 2016, 10:24:02
Post #2

Group: Подсевший
Posts: 18
Releases: 0
On Forums: 7 years 11 months
Thanks: 8 time(s)
Russian Federation


Очень достойный лайв! Почему-то всегда думал, что проект исключительно студийный и в живую если они это сыграют (и, главное, - споют), то будет это выглядеть довольно смешно и хило (IMG:style_emoticons/default/13.gif)
Ааа!!! Хочу двд целиком, а не нарезки с ютуба (IMG:style_emoticons/default/pray.gif)


Go to the top of the page
  Insert nick Quick quote
+Quote Post
post Feb 20 2017, 18:04:32
Post #3

Пять Литров
*****
Group: Металариец
Posts: 457
Releases: 0
From: Novorossiysk
On Forums: 11 years 3 months
Thanks: 112 time(s)
Russian Federation



просто чудо как хорош живой альбом, slave с двумя драммерами ухх, а как он поёт! где бы еще в HD видео найти, на ютьюбе низкое качество.


Go to the top of the page
  Insert nick Quick quote
+Quote Post
post Aug 28 2017, 14:45:23
Post #4

Мегаманьяк
***********
Group: Металариец
Posts: 1,848
Releases: 0
From: Харьков
On Forums: 10 years 4 months
Thanks: 801 time(s)
Ukraine


Шикарный концертник (правда, лучше смотреть на видео). Звук, игра музыкантов, вокал (!) - все на высшем уровне, даже не ожидал.


Thanks:
Go to the top of the page
  Insert nick Quick quote
+Quote Post
post Dec 8 2019, 23:38:01
Post #5

Мегаманьяк
***********
Group: Металариец
Posts: 1,892
Releases: 0
From: Украина, Днепр
On Forums: 6 years 8 months
Thanks: 1480 time(s)
Ukraine


ЦИТАТА(Ghostb @ Aug 28 2017, 15:45:23) *
Шикарный концертник (правда, лучше смотреть на видео). Звук, игра музыкантов, вокал (!) - все на высшем уровне, даже не ожидал.

Только скачал DVD - это божественно! (IMG:style_emoticons/default/pray.gif)
Мало того, что сыграно/спето - круче альбомных записей (Эйнар великолепен - до конца не верил, что ЭТО реально можно спеть "в живую")! Звук - он просто кристально чистый: каждый призвук гитары, бас, барабаны, клавишная "подложка" - неужели у них на концертах он настолько идеален? Судя по всему, Опятам, моим фаворитам по качеству концертного исполнения, придется подвинуться... Не усну, пока не прослушаю все, от и до. Contaminate Me, которая мне особенно у них никогда не нравилась - здесь настолько офигенна - нет слов (Исан - монстр!). Я кончил... (IMG:style_emoticons/default/headcrab.png)
Go to the top of the page
  Insert nick Quick quote
+Quote Post

Reply to this topicStart new topic
1 User(s) are reading this topic (1 Guests and 0 Anonymous Users)
0 Members:

 



- Lo-Fi Version Support form
Copyrights and abuse reports form
Time is now: 21st February 2020 - 08:45:57