Welcome Guest ( Log In | Register )

Объявления

* gmail.com упорно продолжает считать почту с нас "unsolicited" и отбивает в том числе и письма активации, поэтому просьба использовать альтернативные почтовые ящики.
------------
* gmail.com continues reject all mail from us as "unsolicited" (activation mails too) therefore please use alternate mail servers.
> Iscariota - Upadłe Królestwo (2016), Heavy/Thrash Metal (D7)
post Nov 25 2016, 10:53:21
Post #1

Правь статус, ####!111
**************
Group: Металариец
Posts: 2,976
Releases: 423
On Forums: 16 years 6 months
Thanks: 14994 time(s)
Germany


(IMG:http://metalarea.org/images/audiocovers/2016_Nov/acov_tid278616_thumb.jpg)

*Artist: Iscariota
*Album: Upadłe Królestwo
*Year: 2016
*Genre: Heavy/Thrash Metal
*Country: Poland (IMG:http://metalarea.org/forum/style_images/flags/Poland.png)
*Format: mp3@CBR320kbps
*Size: 83MB

Tracklist:
1. Fora Ze Dwora!
2. Judasz (Iscariota)
3. Sny O Potędze
4. Koleżanka Szklanka
5. Płonę
6. Bastion
7. Martwi Bogowie Miasta
8. Upadłe Królestwo
******************************
Total playing time: 35:35

Technical info
(IMG:http://metalarea.org/images/spectrogram/2016_Nov/28488b4286eddd3608920b2aa3827a80.png)
Input File: 05 - Plone.mp3
Channels : 2
Sample Rate : 44100
Precision : 16-bit
Duration : 00:04:28.12 = 11824180 samples = 20109.1 CDDA sectors
File Size : 10.8M
Bit Rate : 323k
Sample Encoding: MPEG audio (layer I, II or III)
Comments :
Title=PЕ‚onД™
Artist=Iscariota
Album=UpadЕ‚e KrГіlestwo
Tracknumber=05/08
Year=2016
Genre=Thhrash/Heavy Metal



Register


Go to the top of the page
  Insert nick Quick quote
+Quote Post
 
Start new topic
Replies (1 - 1)
post Nov 25 2016, 14:08:47
Post #2

Правь статус, ####!111
**************
Group: Металариец
Posts: 2,976
Releases: 423
On Forums: 16 years 6 months
Thanks: 14994 time(s)
Germany


320 kbps
Register


Thanks:
Go to the top of the page
  Insert nick Quick quote
+Quote Post

Reply to this topicStart new topic
2 User(s) are reading this topic (2 Guests and 0 Anonymous Users)
0 Members:

 



- Lo-Fi Version Support form
Copyrights and abuse reports form
Time is now: 27th May 2024 - 23:02:22