Welcome Guest ( Log In | Register )

Объявления

* gmail.com упорно продолжает считать почту с нас "unsolicited" и отбивает в том числе и письма активации, поэтому просьба использовать альтернативные почтовые ящики.
------------
* gmail.com continues reject all mail from us as "unsolicited" (activation mails too) therefore please use alternate mail servers.
> Einherjar - Bearers Of The Valknut [demo] (2015), Black/Death Metal
post Nov 25 2016, 12:16:12
Post #1

Правь статус, ####!111
**************
Group: Металариец
Posts: 2,976
Releases: 423
On Forums: 16 years 6 months
Thanks: 14994 time(s)
Germany


(IMG:http://metalarea.org/images/audiocovers/2016_Nov/acov_tid278627_thumb.jpg)

*Artist: Einherjar
*Album: Bearers Of The Valknut [demo]
*Year: 2015
*Genre: Black/Death Metal
*Country: United States (IMG:http://metalarea.org/forum/style_images/flags/United%20States.png)
*Format: mp3@CBR320kbps
*Size: 24MB

Tracklist:
1. March Of The Barbarians
2. Onward To Valhalla
3. Blood Eagle
4. Valkyrie
5. Feasting On A Giant
******************************
Total playing time: 10:16

Technical info
(IMG:http://metalarea.org/images/spectrogram/2016_Nov/11ea0ab8b5d132bda55837e9c66a25b5.png)
Input File: 02 - Onward To Valhalla.mp3
Channels : 2
Sample Rate : 44100
Precision : 16-bit
Duration : 00:02:44.43 = 7251495 samples = 12332.5 CDDA sectors
File Size : 6.67M
Bit Rate : 324k
Sample Encoding: MPEG audio (layer I, II or III)
Comments :
Title=Onward to Valhalla
Artist=Einherjar
Album=Bearers Of The Valknut
Tracknumber=2
Year=2015
Genre=Black Metal



Register


Thanks:
(2) Goatrex, Rosen,
Go to the top of the page
  Insert nick Quick quote
+Quote Post
 
Start new topic
Replies (1 - 1)
post Nov 25 2016, 14:09:32
Post #2

Правь статус, ####!111
**************
Group: Металариец
Posts: 2,976
Releases: 423
On Forums: 16 years 6 months
Thanks: 14994 time(s)
Germany


320 kbps
Register


Thanks:
Go to the top of the page
  Insert nick Quick quote
+Quote Post

Reply to this topicStart new topic
2 User(s) are reading this topic (2 Guests and 0 Anonymous Users)
0 Members:

 



- Lo-Fi Version Support form
Copyrights and abuse reports form
Time is now: 28th May 2024 - 00:05:31