Welcome Guest ( Log In | Register )

 
Reply to this topicStart new topic
> Hell's Punch - Burn It Down (2016), Thrash Metal
post Nov 26 2016, 07:54:01
Post #1

Serial Uploader
Group Icon
Group: V.I.P
Posts: 37,921
Releases: 36064
From: Lithuania
On Forums: 13 years 5 months
Thanks: 440048 time(s)
Lithuania


(IMG:http://metalarea.org/images/audiocovers/2016_Nov/acov_tid278695_thumb.jpg)

*Artist: Hell's Punch
*Album: Burn It Down
*Year: 2016
*Genre: Thrash Metal
*Country: Brazil (IMG:http://metalarea.org/forum/style_images/flags/Brazil.png)
*Format: mp3@CBR320kbps
*Size: 138MB

Tracklist:
01. Hate
02. War Starts Now
03. God Against God
04. Kill Your Politician
05. For What's Right
06. A Stupid Fucking Nation
07. 7 Minutes About Death
08. Hardcore Life
09. Integrity
10. Customized Fetus
11. Burn It Down
12. On Your Knees
13. Freedom Is Betting In A Slow Death
14. Ato Facultaivo
15. Filhos Do Mundo
******************************
Total playing time: 57:24



Technical info
(IMG:http://metalarea.org/images/spectrogram/2016_Nov/506a129dc54a770c74730fb6d46c3188.png)
Input File: 02. War Starts Now.mp3
Channels : 2
Sample Rate : 44100
Precision : 16-bit
Duration : 00:03:57.90 = 10491214 samples = 17842.2 CDDA sectors
File Size : 9.97M
Bit Rate : 335k
Sample Encoding: MPEG audio (layer I, II or III)
Comments :
Title=War Starts Now
Artist=Hell's Punch
Album=Burn it Down
Tracknumber=02
Year=2016



Register


Go to the top of the page
  Insert nick Quick quote
+Quote Post
post Nov 26 2016, 13:45:36
Post #2

\m/
Group Icon
Group: S-moderation team
Posts: 7,965
Releases: 19
From: Петропавловск-Камчатский
On Forums: 12 years 5 months
Thanks: 8082 time(s)
Russian Federation


Go to the top of the page
  Insert nick Quick quote
+Quote Post
post Nov 27 2016, 11:56:38
Post #3

_ - = # Thrashogolic # = - _ ... а давайте поржём все вместе
**************
Group: Металариец
Posts: 21,095
Releases: 4443
From: 404
On Forums: 11 years 5 months
Thanks: 28107 time(s)
Ukraine


Register


Thanks:
(2) Mogozoz, WX419,
Go to the top of the page
  Insert nick Quick quote
+Quote Post
post Nov 27 2016, 13:07:38
Post #4

MDM-Thrash Metal
**************
Group: Металариец
Posts: 10,695
Releases: 1345
From: Одесса
On Forums: 14 years 3 months
Thanks: 32501 time(s)
Ukraine


К сожалению, но уж очень топорно-примитивно выполненно (IMG:style_emoticons/default/6.gif)
Go to the top of the page
  Insert nick Quick quote
+Quote Post

Reply to this topicStart new topic
1 User(s) are reading this topic (1 Guests and 0 Anonymous Users)
0 Members:

 



- Lo-Fi Version Support form
Copyrights and abuse reports form
Time is now: 3rd December 2021 - 06:07:49