Welcome Guest ( Log In | Register )

Объявления

* gmail.com упорно продолжает считать почту с нас "unsolicited" и отбивает в том числе и письма активации, поэтому просьба использовать альтернативные почтовые ящики.
------------
* gmail.com continues reject all mail from us as "unsolicited" (activation mails too) therefore please use alternate mail servers.
> Die Apokalyptischen Reiter - Dr. Pest [single] (2011), Folk/Melodic Death Metal (D)
post Dec 1 2016, 18:39:22
Post #1

True Holocaust
*****
Group: Металариец
Posts: 430
Releases: 2
From: Рідна Ненька Україна
On Forums: 14 years 4 months
Thanks: 845 time(s)
Ukraine


(IMG:http://metalarea.org/images/audiocovers/2016_Dec/acov_tid279063_thumb.jpg)

*Artist: Die Apokalyptischen Reiter
*Album: Dr. Pest [single]
*Year: 2011
*Genre: Folk/Melodic Death Metal
*Country: Germany (IMG:http://metalarea.org/forum/style_images/flags/Germany.png)
*Format: mp3@CBR320kbps
*Size: 20MB

Tracklist:
01 - Dr. Pest (3:27)
02 - Die Boten (3:53)
******************************
Total playing time: 7:20

Technical info
(IMG:http://metalarea.org/images/spectrogram/2016_Dec/d8085420ddadeeb3d0d7e2c74830d3aa.png)
Input File: 01 - Dr. Pest.mp3
Channels : 2
Sample Rate : 44100
Precision : 16-bit
Duration : 00:03:53.90 = 10314946 samples = 17542.4 CDDA sectors
File Size : 11.0M
Bit Rate : 375k
Sample Encoding: MPEG audio (layer I, II or III)
Comments :
Title=Dr. Pest
Artist=Die Apokalyptischen Reiter
Album=Dr. Pest [EP]
Tracknumber=1
Year=2011
Genre=Melodic Death Metal | Folk Metal |Avant-Garde Metal | Viking Metal



Register


Go to the top of the page
  Insert nick Quick quote
+Quote Post
 
Start new topic
Replies (1 - 6)
post Dec 1 2016, 19:13:38
Post #2
BAN
Banned till
May 24 2024, 17:39:45



Dr.Pest be my guest
Go to the top of the page
  Insert nick Quick quote
+Quote Post
post Dec 1 2016, 19:16:27
Post #3

Правь статус, ####!111
**************
Group: Металариец
Posts: 55,976
Releases: 1200
On Forums: 14 years 11 months
Thanks: 54831 time(s)
Russian Federation


Это говнецо еще кто-то слушает? (IMG:style_emoticons/default/15.gif)

Обложки у блэкарей 666 днищанского уровня лучще чем эта хренопись.
Go to the top of the page
  Insert nick Quick quote
+Quote Post
post Dec 1 2016, 22:42:56
Post #4

Going home. Flying high.
**************
Group: Металариец
Posts: 13,612
Releases: 0
From: The Land of Shadows
On Forums: 17 years 9 months
Thanks: 32868 time(s)
Russian Federation


я даже одного кадра знаю, он мечтает диски прикупить)) правда, вроде бы, лицуху. не хочет на фирму тратиться.
Go to the top of the page
  Insert nick Quick quote
+Quote Post
post Dec 2 2016, 08:40:10
Post #5

железный нечеловек
***********
Group: Металариец
Posts: 1,506
Releases: 3
From: Уфа
On Forums: 15 years 1 month
Thanks: 560 time(s)
Russian Federation


В своё время угарная группа была
Go to the top of the page
  Insert nick Quick quote
+Quote Post
post Dec 15 2016, 04:26:36
Post #6

Трясоглав Необыкновенный
******
Group: Металариец
Posts: 672
Releases: 0
From: Canoa - Ecuador
On Forums: 14 years 9 months
Thanks: 199 time(s)
Ecuador


QUOTE(cancer1974 @ Dec 2 2016, 02:40:10) *
В своё время угарная группа была

Да они очень много понаписали, что теперь ни одну песню от другой не отличишь. Вообще-то это юмористическа музыка, кто на концертах был их, тот знает, что это стеб, хохма все. Извращенец этот, остальные персонажи. Смешной Рамштайн, как их для себя называю.
Эти композиции ничем не отличаются от написанных ранее.
Go to the top of the page
  Insert nick Quick quote
+Quote Post
post Dec 20 2016, 12:45:09
Post #7

मृत्यु
**************
Group: Металариец
Posts: 3,596
Releases: 24
On Forums: 13 years 10 months
Thanks: 2346 time(s)
Antarctica


Когда-то норм были. По крайней мере, с музыкальной точки зрения.
Go to the top of the page
  Insert nick Quick quote
+Quote Post

Reply to this topicStart new topic
2 User(s) are reading this topic (2 Guests and 0 Anonymous Users)
0 Members:

 



- Lo-Fi Version Support form
Copyrights and abuse reports form
Time is now: 26th May 2024 - 19:03:41