Welcome Guest ( Log In | Register )

> 

Здесь релизы с живыми прямыми ссылками на lossless

> Forevers' Fallen Grace - Firebound Manifesto (2012), Epic Power/Heavy Metal
post Dec 6 2016, 14:00:14
Post #1

Мегаманьяк
***********
Group: Металариец
Posts: 1,975
Releases: 215
From: Omsk, Siberia
On Forums: 12 years 2 months
Thanks: 4462 time(s)
Russian Federation


(IMG:https://metalarea.org/images/audiocovers/2016_Dec/acov_tid279357_thumb.jpg)

*Artist: Forevers' Fallen Grace
*Album: Firebound Manifesto
*Year: 2012
*Genre: Epic Power/Heavy Metal
*Country: United States (IMG:https://metalarea.org/forum/style_images/flags/United%20States.png)
*Format: mp3@CBR320kbps
*Size: 122MB

Tracklist:
1. A Slow Epic 08:00
2. Dominion 06:26
3. Wrought From Within 04:58
4. Unrequited 04:54
5. Sky's Last Breath 04:55
6. Bane Of Harmony 04:32
7. The Dying Light 06:22
8. From The Shadows...To The Dark 07:03
9. Come To The Sabbath (Mercyful Fate cover) 06:03
******************************
Total playing time: 53:17



(IMG:https://metalarea.org/images/myspace.png)
Preview 4

Technical info
(IMG:https://metalarea.org/images/spectrogram/2016_Dec/dff1c626d84586667e15d54eef181731.png)
Input File: 04 Unrequited.mp3
Channels : 2
Sample Rate : 44100
Precision : 16-bit
Duration : 00:04:54.40 = 12983216 samples = 22080.3 CDDA sectors
File Size : 11.9M
Bit Rate : 324k
Sample Encoding: MPEG audio (layer I, II or III)
Comments :
Title=Unrequited
Artist=Forevers' Fallen Grace
Album=Firebound Manifesto
Tracknumber=4
Year=2012
Genre=Metal



Register


Go to the top of the page
  Insert nick Quick quote
+Quote Post
 
Start new topic
Replies (1 - 3)
post Dec 7 2016, 22:36:17
Post #2

Going home. Flying high.
**************
Group: Металариец
Posts: 13,325
Releases: 0
From: The Land of Shadows
On Forums: 14 years 9 months
Thanks: 26976 time(s)
Russian Federation


зеркало, из сети:
Register
Go to the top of the page
  Insert nick Quick quote
+Quote Post
post Apr 8 2021, 18:26:26
Post #3

threat
******
Group: Металариец
Posts: 610
Releases: 0
On Forums: 14 years 10 months
Thanks: 53 time(s)
Turkey


can you renew the link
Go to the top of the page
  Insert nick Quick quote
+Quote Post
post Apr 12 2021, 09:54:11
Post #4

Group Icon
Group: S-moderation team
Posts: 21,086
Releases: 1443
From: Zagreb
On Forums: 10 years 3 months
Thanks: 97121 time(s)
Croatia


Register
Register


Thanks:
Go to the top of the page
  Insert nick Quick quote
+Quote Post

Reply to this topicStart new topic
1 User(s) are reading this topic (1 Guests and 0 Anonymous Users)
0 Members:

 



- Lo-Fi Version Support form
Copyrights and abuse reports form
Time is now: 12th June 2021 - 22:24:17