Welcome Guest ( Log In | Register )

> Eternich - Towards The Darkfields (2016), Raw Black Metal
post Dec 7 2016, 13:49:09
Post #1

Hellhammer/Celtic Frost/Triptykon
**************
Group: Металариец
Posts: 2,190
Releases: 777
From: Новосибирск
On Forums: 11 years 10 months
Thanks: 6409 time(s)
Russian Federation


(IMG:http://metalarea.org/images/audiocovers/2016_Dec/acov_tid279425_thumb.jpg)

*Artist: Eternich
*Album: Towards The Darkfields
*Year: 2016
*Genre: Raw Black Metal
*Country: Poland (IMG:http://metalarea.org/forum/style_images/flags/Poland.png)
*Format: mp3@CBR320kbps
*Size: 87MB

Tracklist:
01.From Darkfields I Am 03:05
02.I Vindicate Myself 04:30
03.Theefe 05:14
04.Freshness 06:11
05.Elvira 03:18
06.Across the Sorrowfields 03:56
07.Unholiness of Me 04:22
08.Lyset fra Fortid 03:33
09.In the Shadow of the Throne 04:12
******************************
Total playing time: 38:21



Technical info
(IMG:http://metalarea.org/images/spectrogram/2016_Dec/a7c1201bdb078d6d10a7d6dc0ff9dd89.png)
Input File: Eternich - Towards The Darkfields - 02 I Vindicate Myself.mp3
Channels : 2
Sample Rate : 44100
Precision : 16-bit
Duration : 00:04:30.68 = 11936988 samples = 20301 CDDA sectors
File Size : 10.9M
Bit Rate : 321k
Sample Encoding: MPEG audio (layer I, II or III)
Comments :
Title=I Vindicate Myself
Artist=Eternich
Album=Towards The Darkfields
Tracknumber=2
Year=2016



Register


Go to the top of the page
  Insert nick Quick quote
+Quote Post
 
Start new topic
Replies (1 - 2)
post Feb 23 2017, 09:11:39
Post #2

Sempiternus Necromant
**********
Group: Металариец
Posts: 1,041
Releases: 4
From: Сибирь - Алтайский Край
On Forums: 10 years 6 months
Thanks: 355 time(s)
Russian Federation


Black Metal да восстанет ! (IMG:style_emoticons/default/true_black.gif)


Thanks:
(1) DarkHorde,
Go to the top of the page
  Insert nick Quick quote
+Quote Post
post Jan 17 2019, 09:49:36
Post #3

Два Литра
**
Group: Завсегдатай
Posts: 171
Releases: 0
On Forums: 3 years 4 months
Thanks: 28 time(s)
Poland


Can You re-up?
Thx.
Go to the top of the page
  Insert nick Quick quote
+Quote Post

Reply to this topicStart new topic
2 User(s) are reading this topic (2 Guests and 0 Anonymous Users)
0 Members:

 



- Lo-Fi Version Support form
Copyrights and abuse reports form
Time is now: 13th July 2020 - 13:20:11