Welcome Guest ( Log In | Register )

> Drace XII - Supreme Legacy (2016), Symphonic Power Metal
post Dec 9 2016, 14:32:58
Post #1

Serial Uploader
Group Icon
Group: V.I.P
Posts: 37,608
Releases: 35780
From: Lithuania
On Forums: 13 years 1 month
Thanks: 433149 time(s)
Lithuania


(IMG:https://metalarea.org/images/audiocovers/2016_Dec/acov_tid279553_thumb.jpg)

*Artist: Drace XII
*Album: Supreme Legacy
*Year: 2016
*Genre: Symphonic Power Metal
*Country: Brazil (IMG:https://metalarea.org/forum/style_images/flags/Brazil.png)
*Format: mp3@CBR320kbps
*Size: 124MB

Tracklist:
01. Aleph 01:39
02. Eziel, The Giver 06:46
03. Dark Opus 05:10
04. Priests Of Sacrifice 03:56
05. Tides Of Revolution 03:59
06. Disenchant 08:21
07. The Holy Cloak 04:26
08. Adventum 01:29
09. Arise Again 04:54
10. Endless War 03:49
11. The 12th Order 03:59
12. The Unholy Hymn 05:27
******************************
Total playing time: 53:55



Technical info
(IMG:https://metalarea.org/images/spectrogram/2016_Dec/5608e8918d21da2f9e618146070ffff2.png)
Input File: 02. Eziel, The Giver.mp3
Channels : 2
Sample Rate : 44100
Precision : 16-bit
Duration : 00:06:46.06 = 17907202 samples = 30454.4 CDDA sectors
File Size : 16.3M
Bit Rate : 321k
Sample Encoding: MPEG audio (layer I, II or III)
Comments :
Title=Eziel, The Giver
Artist=Drace XII
Album=Supreme Legacy
Tracknumber=2
Year=2016



Register


Thanks:
Go to the top of the page
  Insert nick Quick quote
+Quote Post
 
Start new topic
Replies (1 - 2)
post Dec 9 2016, 16:35:08
Post #2

hearer & reader
**************
Group: Металариец
Posts: 9,813
Releases: 172
From: Moscow
On Forums: 13 years 10 months
Thanks: 11064 time(s)
Russian Federation



ЦИТАТА
Members
Rodrigo F. - vocals
Anderson R. - bass, orchestration

Мда..
Go to the top of the page
  Insert nick Quick quote
+Quote Post
post Dec 10 2016, 08:34:03
Post #3

Мегаманьяк
***********
Group: Металариец
Posts: 1,780
Releases: 0
On Forums: 8 years 8 months
Thanks: 2656 time(s)
Russian Federation


Альтернативная ссылка
Register


Thanks:
(1) Mogozoz,
Go to the top of the page
  Insert nick Quick quote
+Quote Post

Reply to this topicStart new topic
1 User(s) are reading this topic (1 Guests and 0 Anonymous Users)
0 Members:

 



- Lo-Fi Version Support form
Copyrights and abuse reports form
Time is now: 24th July 2021 - 11:54:47