Welcome Guest ( Log In | Register )

> 

Здесь релизы с живыми прямыми ссылками на lossless

> Mooncitadel - As Nightwind Embraced and the Shadows Caressed... [demo] (2016), Black Metal
post Dec 11 2016, 21:48:42
Post #1

Правь статус, ####!111
**************
Group: Металариец
Posts: 2,250
Releases: 1803
From: Praha
On Forums: 7 years 1 month
Thanks: 47537 time(s)
Czech Republic


(IMG:http://metalarea.org/images/audiocovers/2016_Dec/acov_tid279669_thumb.jpg)

*Artist: Mooncitadel
*Album: As Nightwind Embraced and the Shadows Caressed... [demo]
*Year: 2016
*Genre: Black Metal
*Country: Finland (IMG:http://metalarea.org/forum/style_images/flags/Finland.png)
*Format: mp3@CBR320kbps
*Size: 44MB

Tracklist:
1. Dimensional Key as the Sword of Stars 04:09
2. Lord of the Moonrealm 06:03
3. When Thousand Winters Bury My Heart 05:18
4. The Earl of Nightfall 03:32
******************************
Total playing time: 19:02

Technical info
(IMG:http://metalarea.org/images/spectrogram/2016_Dec/47297975f6f2183bf0c0a1c1c359ab25.png)
Input File: 02. Lord of the Moonrealm.mp3
Channels : 2
Sample Rate : 44100
Precision : 16-bit
Duration : 00:06:03.61 = 16035025 samples = 27270.5 CDDA sectors
File Size : 14.7M
Bit Rate : 324k
Sample Encoding: MPEG audio (layer I, II or III)
Comments :
Title=Lord of the Moonrealm
Artist=Mooncitadel
Album=As Nightwind Embraced and the Shadows Caressed
Tracknumber=02/04
Year=2016
Genre=Black Metal



Register


Go to the top of the page
  Insert nick Quick quote
+Quote Post
 
Start new topic
Replies (1 - 7)
post Dec 12 2016, 06:41:02
Post #2

the faceless one
Group Icon
Group: S-moderation team
Posts: 9,394
Releases: 1936
On Forums: 12 years 9 months
Thanks: 117584 time(s)
Russian Federation


Прямая ссылка -
Register


Go to the top of the page
  Insert nick Quick quote
+Quote Post
post Dec 12 2016, 15:57:46
Post #3

While Waiting the Worms
**********
Group: Металариец
Posts: 1,291
Releases: 0
On Forums: 7 years 4 months
Thanks: 1908 time(s)
Unknown




так могла бы звучать коллаборация ранних Abigor и Summoning.
торжество эпичного мистического мелодизма.


Thanks:
(1) RUSP73,
Go to the top of the page
  Insert nick Quick quote
+Quote Post
post Dec 20 2016, 07:36:01
Post #4

Group Icon
Group: S-moderation team
Posts: 20,752
Releases: 1443
From: Zagreb
On Forums: 10 years 2 months
Thanks: 95159 time(s)
Croatia


This is excellent demo! (IMG:style_emoticons/default/20.gif) (IMG:style_emoticons/default/19.gif)
Go to the top of the page
  Insert nick Quick quote
+Quote Post
post Feb 10 2017, 12:57:37
Post #5

I will kill you
**************
Group: Металариец
Posts: 3,028
Releases: 0
From: Moscow
On Forums: 14 years 10 months
Thanks: 7069 time(s)
Russian Federation


Speil in 320
Register


Go to the top of the page
  Insert nick Quick quote
+Quote Post
post Feb 24 2017, 08:03:30
Post #6

Шесть Литров
******
Group: Металариец
Posts: 528
Releases: 15
From: Самара
On Forums: 12 years 9 months
Thanks: 904 time(s)
Russian Federation


это тот же чувак, что и в Empire Of Tharaphita (IMG:style_emoticons/default/20.gif)
Go to the top of the page
  Insert nick Quick quote
+Quote Post
post Feb 24 2017, 10:49:53
Post #7

Group Icon
Group: S-moderation team
Posts: 20,752
Releases: 1443
From: Zagreb
On Forums: 10 years 2 months
Thanks: 95159 time(s)
Croatia


Register


Go to the top of the page
  Insert nick Quick quote
+Quote Post
post May 4 2021, 09:09:28
Post #8

Два Литра
**
Group: Завсегдатай
Posts: 157
Releases: 2
From: г. Нальчик
On Forums: 8 years 5 months
Thanks: 553 time(s)
Russian Federation


Mooncitadel - As Nightwind Embraced and the Shadows Caressed... (2016), FLAC (tracks), Lossless 148 MB
Register
Go to the top of the page
  Insert nick Quick quote
+Quote Post

Reply to this topicStart new topic
2 User(s) are reading this topic (2 Guests and 0 Anonymous Users)
0 Members:

 



- Lo-Fi Version Support form
Copyrights and abuse reports form
Time is now: 14th May 2021 - 11:35:28