Welcome Guest ( Log In | Register )

> Savage Realm - Nocturnal Savagery [demo] (2016), Death Metal
post Dec 19 2016, 12:49:39
Post #1

Мастер волшебного кнута
**************
Group: Металариец
Posts: 3,909
Releases: 3605
From: Кронштадт, Санкт-Петербург
On Forums: 13 years 11 months
Thanks: 22672 time(s)
Russian Federation


(IMG:http://metalarea.org/images/audiocovers/2016_Dec/acov_tid280086_thumb.jpg)

*Artist: Savage Realm
*Album: Nocturnal Savagery [demo]
*Year: 2016
*Genre: Death Metal
*Country: United Kingdom (IMG:http://metalarea.org/forum/style_images/flags/United%20Kingdom.png)
*Format: mp3@CBR320kbps
*Size: 22MB

Tracklist:
01. So As Below 02:49
02. Poveglia 03:00
03. The Sea Of Claws 02:08
04. Sacred Grove 01:31
******************************
Total playing time: 9:28



Technical info
(IMG:http://metalarea.org/images/spectrogram/2016_Dec/822a1185a674d73750d65ad23ec62ebf.png)
Input File: 01 So As Below.mp3
Channels : 2
Sample Rate : 44100
Precision : 16-bit
Duration : 00:02:49.32 = 7466792 samples = 12698.6 CDDA sectors
File Size : 6.86M
Bit Rate : 324k
Sample Encoding: MPEG audio (layer I, II or III)
Comments :
Title=So As Below
Artist=Savage Realm
Album=Nocturnal Savagery
Tracknumber=1
Year=2016
Genre=22



Register


Go to the top of the page
  Insert nick Quick quote
+Quote Post
 
Start new topic
Replies (1 - 1)
post Oct 14 2021, 02:28:09
Post #2

Маньяк
**********
Group: Металариец
Posts: 1,085
Releases: 0
On Forums: 3 years 2 months
Thanks: 37 time(s)
Serbia


PLS REUPLOAD
Go to the top of the page
  Insert nick Quick quote
+Quote Post

Reply to this topicStart new topic
1 User(s) are reading this topic (1 Guests and 0 Anonymous Users)
0 Members:

 



- Lo-Fi Version Support form
Copyrights and abuse reports form
Time is now: 16th October 2021 - 04:38:23