Welcome Guest ( Log In | Register )

Объявления

* gmail.com упорно продолжает считать почту с нас "unsolicited" и отбивает в том числе и письма активации, поэтому просьба использовать альтернативные почтовые ящики.
------------
* gmail.com continues reject all mail from us as "unsolicited" (activation mails too) therefore please use alternate mail servers.
> Wineta - Zanim Wstanie Dzień/Reh.’93 (2015), Black Metal
post Dec 20 2016, 08:50:07
Post #1

Правь статус, ####!111
**************
Group: Металариец
Posts: 2,976
Releases: 423
On Forums: 16 years 6 months
Thanks: 14994 time(s)
Germany


(IMG:http://metalarea.org/images/audiocovers/2016_Dec/acov_tid280120_thumb.jpg)

*Artist: Wineta
*Album: Zanim Wstanie Dzień/Reh.’93
*Year: 2015
*Genre: Black Metal
*Country: Poland (IMG:http://metalarea.org/forum/style_images/flags/Poland.png)
*Format: mp3@CBR320kbps
*Size: 40MB

Tracklist:
1. Wspomnienie
2. Krzyk Wilczych Dusz
3. We Śnie
4. Zanim Wstanie Świt
5. Track 1 (Reh.’93)
6. Track 2 (Reh.’93)
******************************
Total playing time: 17:06

Technical info
(IMG:http://metalarea.org/images/spectrogram/2016_Dec/ba6ad4e429b6c71958f2c1eab53cdfe3.png)
Input File: 03 - We Snie.mp3
Channels : 2
Sample Rate : 44100
Precision : 16-bit
Duration : 00:02:34.04 = 6792944 samples = 11552.6 CDDA sectors
File Size : 6.25M
Bit Rate : 325k
Sample Encoding: MPEG audio (layer I, II or III)
Comments :
Title=We ВЊnie
Artist=Wineta
Album=Zanim Wstanie DzieГ±/Reh.'93
Tracknumber=3
Year=2015
Genre=Black Metal



Register


Go to the top of the page
  Insert nick Quick quote
+Quote Post
 
Start new topic
Replies (1 - 2)
post Dec 20 2016, 12:47:49
Post #2

Правь статус, ####!111
**************
Group: Металариец
Posts: 2,976
Releases: 423
On Forums: 16 years 6 months
Thanks: 14994 time(s)
Germany


320 kbps + CD & tape scans
Register


Go to the top of the page
  Insert nick Quick quote
+Quote Post
post Dec 21 2016, 08:42:09
Post #3

Правь статус, ####!111
Group Icon
Group: S-moderation team
Posts: 22,058
Releases: 1443
On Forums: 13 years 3 months
Thanks: 127958 time(s)
Unknown


It's scary how much 6. Track 2 (Reh.’93) sounds like Burzum Lost Wisdom from '92 demo... (IMG:style_emoticons/default/hmm.gif) (IMG:style_emoticons/default/16.gif)


Thanks:
(1) Goatrex,
Go to the top of the page
  Insert nick Quick quote
+Quote Post

Reply to this topicStart new topic
2 User(s) are reading this topic (2 Guests and 0 Anonymous Users)
0 Members:

 



- Lo-Fi Version Support form
Copyrights and abuse reports form
Time is now: 27th May 2024 - 23:59:09