Welcome Guest ( Log In | Register )

> Athos - Noht Lerapot (2016), Black Metal
post Jan 6 2017, 17:25:37
Post #1

the faceless one
Group Icon
Group: S-moderation team
Posts: 9,334
Releases: 1926
On Forums: 11 years 11 months
Thanks: 115235 time(s)
Russian Federation


(IMG:http://metalarea.org/images/audiocovers/2017_Jan/acov_tid280997_thumb.jpg)

*Artist: Athos
*Album: Noht Lerapot
*Year: 2016
*Genre: Black Metal
*Country: Greece (IMG:http://metalarea.org/forum/style_images/flags/Greece.png)
*Format: mp3@CBR320kbps
*Size: 94MB

Tracklist:
1. E Uevserp Elot Sopael Uapeiga (Intro) 01:35
2. Enaht Ep Iesp Etsip 05:13
3. E Topek Ihtop Iened Uop A Irot Sii 04:20
4. Io Livev Io Sake 06:01
5. Noht Lerapot (Siesk Atiok Aniep Erpaieht Ilanit Siervan Aig) 06:17
6. Samset Hats Sitop Aasem 05:25
7. Uoeht Uoiar Veson E Amonot Sie 05:04
8. Anap Uotif Ort Sipei 05:40
******************************
Total playing time: 39:35


(IMG:http://metalarea.org/images/youtube.png)

Extended info
Exclusively for MetalArea!

Повелители жертв и свидетели сакральных обрядов. Вступившие в Воинство Тьмы, они сокрушат врагов, сконцентрировав на бранном поле энергию и силу своих славных предков. А затем пожрут останки неверных, осквернят гниющие цевки иудейских выродков. Вновь обнажив свои клинки с нанесёнными на острие Сигилами, они ринутся в бой, чтобы вновь доказать верность Тёмному Вождю. Их мистериальные таинства, окутанные мраком, озарены подлинным астральным светом Чёрного Солнца. Вымолвив древние Слова, они преодолеют последние оковы, ознаменовав тем самым, что Путь бесконечен...


Technical info
(IMG:http://metalarea.org/images/spectrogram/2017_Jan/e18b702e14eea701685794e153a1ef05.png)
Input File: 03. E Topek Ihtop Iened Uop A Irot Sii.mp3
Channels : 2
Sample Rate : 44100
Precision : 16-bit
Duration : 00:04:20.08 = 11469352 samples = 19505.7 CDDA sectors
File Size : 10.4M
Bit Rate : 320k
Sample Encoding: MPEG audio (layer I, II or III)
Comments :
Title=E Topek Ihtop Iened Uop A Irot Sii
Artist=ATHOS
Album=Noht Lerapot
Tracknumber=3
Year=2016
Genre=Black Metal



Register


Go to the top of the page
  Insert nick Quick quote
+Quote Post
 
Start new topic
Replies (1 - 9)
post Jan 6 2017, 19:58:37
Post #2

Восемь Литров
********
Group: Металариец
Posts: 850
Releases: 163
On Forums: 9 years 9 months
Thanks: 2095 time(s)
Albania


thanks a lot bro (IMG:style_emoticons/default/20.gif)
Go to the top of the page
  Insert nick Quick quote
+Quote Post
post Jan 6 2017, 23:56:40
Post #3
BAN
Banned till
Jul 16 2020, 15:35:27



Греческий блэк лично для меня - самый блэк
Go to the top of the page
  Insert nick Quick quote
+Quote Post
post Jan 7 2017, 11:28:51
Post #4

Full-of-Hate
**************
Group: Металариец
Posts: 3,716
Releases: 0
From: Moscow
On Forums: 11 years 1 week
Thanks: 3520 time(s)
Russian Federation


Достаточно лирично преподнесено, мелодии так и льются. При достаточно простенькой реализации саунда все равно материал цепляет. Что-то в этом определенно есть, подкупают эмоциями. Очень круто.


Thanks:
Go to the top of the page
  Insert nick Quick quote
+Quote Post
post Jan 8 2017, 10:34:18
Post #5

Necromancer
Group Icon
Group: Curation team
Posts: 11,029
Releases: 271
From: Зеленоград
On Forums: 13 years 9 months
Thanks: 8869 time(s)
Russian Federation


Чёрный мелодичный яд. Отличный альбом. (IMG:style_emoticons/default/true_black.gif)


Thanks:
Go to the top of the page
  Insert nick Quick quote
+Quote Post
post Jan 8 2017, 11:12:33
Post #6

ME[ta]LLOMAN
**************
Group: Металариец
Posts: 4,968
Releases: 3
From: Avdeyevka
On Forums: 14 years 2 months
Thanks: 1956 time(s)
Honduras


незатейливо, но монументальненько... (IMG:style_emoticons/default/9.gif) йанварскай бальзамчик


Thanks:
Go to the top of the page
  Insert nick Quick quote
+Quote Post
post Jan 10 2017, 19:58:21
Post #7

Sempiternus Necromant
**********
Group: Металариец
Posts: 1,041
Releases: 4
From: Сибирь - Алтайский Край
On Forums: 10 years 6 months
Thanks: 355 time(s)
Russian Federation


Реальное открытие для меня, раньше его не слышал, а как услышал, ох*ел, истинный, потерянный давно, дух Black Metal. (IMG:style_emoticons/default/true_black.gif)


Thanks:
Go to the top of the page
  Insert nick Quick quote
+Quote Post
post Jan 11 2017, 02:37:28
Post #8

\m/
Group Icon
Group: S-moderation team
Posts: 7,796
Releases: 19
From: Петропавловск-Камчатский
On Forums: 11 years 1 month
Thanks: 7633 time(s)
Russian Federation


Помимо релиза, спасибо за приятные бонус-картинки (IMG:style_emoticons/default/15.gif)
Go to the top of the page
  Insert nick Quick quote
+Quote Post
post May 18 2017, 13:30:44
Post #9

antithesis
**************
Group: Металариец
Posts: 3,129
Releases: 34
From: VRN
On Forums: 10 years 1 month
Thanks: 1942 time(s)
Russian Federation


это она. чёрная кровь. (IMG:style_emoticons/default/true_black.gif) есть ещё демоны.
Go to the top of the page
  Insert nick Quick quote
+Quote Post
post May 19 2017, 21:54:49
Post #10

Black is beautiful
***********
Group: Металариец
Posts: 1,799
Releases: 4
On Forums: 8 years 4 months
Thanks: 363 time(s)
Unknown


It's not bad, but such a resonance?
So much thanks? Incomprehensible
3.5 stars out of 5
(IMG:style_emoticons/default/true_black.gif)
Go to the top of the page
  Insert nick Quick quote
+Quote Post

Reply to this topicStart new topic
2 User(s) are reading this topic (2 Guests and 0 Anonymous Users)
0 Members:

 



- Lo-Fi Version Support form
Copyrights and abuse reports form
Time is now: 13th July 2020 - 12:22:15