Welcome Guest ( Log In | Register )

> Bullcreek - Osschaert (2017), Death Metal
post Jan 7 2017, 13:43:39
Post #1

Serial Uploader
Group Icon
Group: V.I.P
Posts: 37,672
Releases: 35839
From: Lithuania
On Forums: 13 years 4 months
Thanks: 434514 time(s)
Lithuania


(IMG:http://metalarea.org/images/audiocovers/2017_Jan/acov_tid281040_thumb.jpg)

*Artist: Bullcreek
*Album: Osschaert
*Year: 2017
*Genre: Death Metal
*Country: Netherlands (IMG:http://metalarea.org/forum/style_images/flags/Netherlands.png)
*Format: mp3@CBR256kbps
*Size: 84MB

Tracklist:
01. Woods of Wiezel 05:25
02. The Serpent's Egg 06:35
03. Bullhead 06:02
04. Dorset Ooser 07:22
05. Osschaert 05:22
06. Deliverance 05:40
07. The Monastery 09:06
******************************
Total playing time: 45:32



Extended info
(IMG:http://metalarea.org/images/spectrogram/2017_Jan/49d4da0e81851ce42414d628c63eaa37.png)
Input File: 04 - Dorset Ooser.mp3
Channels : 2
Sample Rate : 44100
Precision : 16-bit
Duration : 00:07:22.37 = 19508385 samples = 33177.5 CDDA sectors
File Size : 14.3M
Bit Rate : 259k
Sample Encoding: MPEG audio (layer I, II or III)
Comments :
Title=Dorset Ooser
Artist=Bullcreek
Album=Osschaert
Tracknumber=4
Year=2017


Register


Go to the top of the page
  Insert nick Quick quote
+Quote Post
 
Start new topic
Replies (1 - 8)
post Jan 7 2017, 13:57:33
Post #2

\m/
Group Icon
Group: S-moderation team
Posts: 7,953
Releases: 19
From: Петропавловск-Камчатский
On Forums: 12 years 4 months
Thanks: 8058 time(s)
Russian Federation




Thanks:
Go to the top of the page
  Insert nick Quick quote
+Quote Post
post Jan 7 2017, 15:08:16
Post #3

ухо-горло-нос
********
Group: Металариец
Posts: 806
Releases: 0
From: Севастополь
On Forums: 11 years 1 month
Thanks: 379 time(s)
Russian Federation


Любителям Амон Амарта посвящается... дифференцированный клон
Go to the top of the page
  Insert nick Quick quote
+Quote Post
post Jan 8 2017, 11:20:32
Post #4

Serial Uploader
Group Icon
Group: V.I.P
Posts: 37,672
Releases: 35839
From: Lithuania
On Forums: 13 years 4 months
Thanks: 434514 time(s)
Lithuania


Register


Go to the top of the page
  Insert nick Quick quote
+Quote Post
post Jan 9 2017, 01:32:50
Post #5

Это просто место… где все подошло к концу.
**************
Group: Металариец
Posts: 6,422
Releases: 0
From: Страны Мамонтов
On Forums: 14 years 8 months
Thanks: 2522 time(s)
Antarctica


Соляжки тут очень приятственные
Go to the top of the page
  Insert nick Quick quote
+Quote Post
post Feb 22 2017, 07:11:26
Post #6

Crush! Kill! Destroy!
**************
Group: Металариец
Posts: 5,697
Releases: 15
From: Kaliningrad
On Forums: 13 years 11 months
Thanks: 5410 time(s)
Russian Federation


Залейте плиз!
Go to the top of the page
  Insert nick Quick quote
+Quote Post
post Aug 18 2019, 00:10:15
Post #7

Маньяк
**********
Group: Металариец
Posts: 1,085
Releases: 0
On Forums: 3 years 3 months
Thanks: 37 time(s)
Serbia


PLS REUPLOAD
Go to the top of the page
  Insert nick Quick quote
+Quote Post
post Aug 19 2019, 13:35:40
Post #8

практически всеядное
****
Group: Металариец
Posts: 350
Releases: 0
On Forums: 12 years 6 months
Thanks: 197 time(s)
Russian Federation


возвращаю
Register


Thanks:
Go to the top of the page
  Insert nick Quick quote
+Quote Post
post Apr 14 2020, 12:23:40
Post #9

Правь статус, ####!111
**************
Group: Металариец
Posts: 5,138
Releases: 477
From: MoscoW
On Forums: 14 years 10 months
Thanks: 7607 time(s)
Russian Federation


Залито на Мыло - 106Mb в 320kbps + Covers!!!:
Register

Band:

Raw Skull Recordz:

(IMG:style_emoticons/default/metaler.gif)
Go to the top of the page
  Insert nick Quick quote
+Quote Post

Reply to this topicStart new topic
2 User(s) are reading this topic (2 Guests and 0 Anonymous Users)
0 Members:

 



- Lo-Fi Version Support form
Copyrights and abuse reports form
Time is now: 21st October 2021 - 22:46:49