Welcome Guest ( Log In | Register )

Объявления

* gmail.com упорно продолжает считать почту с нас "unsolicited" и отбивает в том числе и письма активации, поэтому просьба использовать альтернативные почтовые ящики.
------------
* gmail.com continues reject all mail from us as "unsolicited" (activation mails too) therefore please use alternate mail servers.
> Offence - Adoration Of Black Kingdom (2016), Death Metal
post Jan 9 2017, 15:18:37
Post #1

Serial Uploader
Group Icon
Group: V.I.P
Posts: 42,768
Releases: 40831
From: Lithuania
On Forums: 16 years 1 week
Thanks: 523808 time(s)
Lithuania


(IMG:http://metalarea.org/images/audiocovers/2017_Jan/acov_tid281130_thumb.jpg)

*Artist: Offence
*Album: Adoration Of Black Kingdom
*Year: 2016
*Genre: Death Metal
*Country: Poland (IMG:http://metalarea.org/forum/style_images/flags/Poland.png)
*Format: mp3@CBR320kbps
*Size: 91MB

Tracklist:
01. Sadisticlover Ritual 05:12
02. Tunnels of Consciousness 04:29
03. Hang Him! 05:19
04. Bloody Cemetery Light 04:19
05. Next Door (Only Death) 04:34
06. Obsessed by Hatred 04:12
07. E.N.D. 04:29
08. Adoration of Black Kingdom 03:28
09. Zatruta świadomość 04:05
******************************
Total playing time: 40:07


(IMG:http://metalarea.org/images/youtube.png)

Technical info
(IMG:http://metalarea.org/images/spectrogram/2017_Jan/77fb060f266c32561e0aea11891faf3c.png)
Input File: 02. Tunnels Of Consciousness.mp3
Channels : 2
Sample Rate : 44100
Precision : 16-bit
Duration : 00:04:29.43 = 11881687 samples = 20207 CDDA sectors
File Size : 10.8M
Bit Rate : 321k
Sample Encoding: MPEG audio (layer I, II or III)
Comments :
Title=Tunnels Of Consciousness
Artist=Offence
Album=Adoration Of Black Kingdom
Tracknumber=2
Year=2016



Register


Go to the top of the page
  Insert nick Quick quote
+Quote Post
 
Start new topic
Replies (1 - 4)
post Jan 9 2017, 21:01:07
Post #2

brutalcesar
**************
Group: Металариец
Posts: 18,792
Releases: 77
From: Рязань
On Forums: 15 years 4 months
Thanks: 11266 time(s)
Russian Federation


Заждались 320 (IMG:style_emoticons/default/smile1.gif)
Go to the top of the page
  Insert nick Quick quote
+Quote Post
post Jan 11 2017, 19:32:56
Post #3

Going home. Flying high.
**************
Group: Металариец
Posts: 13,612
Releases: 0
From: The Land of Shadows
On Forums: 17 years 10 months
Thanks: 32961 time(s)
Russian Federation


олдуха же! ретро, а-ля первая половина 90х. но, по принципу: "всё это уже было, в симпсонах" ©


Thanks:
(1) Metalass,
Go to the top of the page
  Insert nick Quick quote
+Quote Post
post Feb 2 2017, 17:48:23
Post #4

मृत्यु
**************
Group: Металариец
Posts: 3,610
Releases: 24
On Forums: 13 years 10 months
Thanks: 2361 time(s)
Antarctica


Register


Thanks:
Go to the top of the page
  Insert nick Quick quote
+Quote Post
post Oct 10 2019, 07:06:35
Post #5

Правь статус, ####!111
Group Icon
Group: S-moderation team
Posts: 22,058
Releases: 1443
On Forums: 13 years 3 months
Thanks: 128241 time(s)
Unknown


Register


Go to the top of the page
  Insert nick Quick quote
+Quote Post

Reply to this topicStart new topic
1 User(s) are reading this topic (1 Guests and 0 Anonymous Users)
0 Members:

 



- Lo-Fi Version Support form
Copyrights and abuse reports form
Time is now: 17th June 2024 - 12:16:26