Welcome Guest ( Log In | Register )

> Aske - Vuohi [demo] (2016), Black Metal
post Jan 11 2017, 13:52:40
Post #1

Group Icon
Group: S-moderation team
Posts: 21,539
Releases: 1443
From: Zagreb
On Forums: 10 years 5 months
Thanks: 100168 time(s)
Croatia


(IMG:https://metalarea.org/images/audiocovers/2017_Jan/acov_tid281231_thumb.jpg)

*Artist: Aske
*Album: Vuohi [demo]
*Year: 2016
*Genre: Black Metal
*Country: Finland (IMG:https://metalarea.org/forum/style_images/flags/Finland.png)
*Format: mp3@CBR320kbps
*Size: 34MB

Tracklist:
1. Intro (Prelude for the Death) 00:50
2. Horns 03:41
3. Unholy Ejaculation 02:23
4. Goat Worship 03:18
5. Outro (Electric Sodomy) 02:10
******************************
Total playing time: 12:22

Extended info
Tape released by Wolfsvuur Records limited to 50 copies (handnumbered).

Tape rip, scans and pictures included.


Technical info
(IMG:https://metalarea.org/images/spectrogram/2017_Jan/1fe7989dd119b40ebe2d538f48331119.png)
Input File: 2. Horns.mp3
Channels : 2
Sample Rate : 44100
Precision : 16-bit
Duration : 00:03:42.09 = 9794213 samples = 16656.8 CDDA sectors
File Size : 8.88M
Bit Rate : 320k
Sample Encoding: MPEG audio (layer I, II or III)
Comments :
Title=Horns
Artist=Aske
Album=Vuohi
Tracknumber=2
Year=2016
Genre=Black Metal



Register


Go to the top of the page
  Insert nick Quick quote
+Quote Post
 
Start new topic
Replies (1 - 4)
post Jan 11 2017, 17:03:27
Post #2

I hate you all
**************
Group: Металариец
Posts: 2,629
Releases: 82
From: Ukraine
On Forums: 14 years 2 months
Thanks: 6687 time(s)
Ukraine


Вот это уже интересно , старый материал был очень зачётен ! спасибо за релиз !
Go to the top of the page
  Insert nick Quick quote
+Quote Post
post Jan 14 2017, 04:25:19
Post #3

Правь статус, ####!111
**************
Group: Металариец
Posts: 2,796
Releases: 18
From: Eternal darkness
On Forums: 13 years 9 months
Thanks: 7729 time(s)
Russian Federation


Register


Thanks:
(1) NachtWulf,
Go to the top of the page
  Insert nick Quick quote
+Quote Post
post Jan 14 2017, 19:35:20
Post #4

Четыре Литра
****
Group: Металариец
Posts: 314
Releases: 0
On Forums: 15 years 1 week
Thanks: 189 time(s)
Belarus




Thanks:
(1) zargonath,
Go to the top of the page
  Insert nick Quick quote
+Quote Post
post Mar 17 2020, 15:32:23
Post #5

Правь статус, ####!111
**************
Group: Металариец
Posts: 5,001
Releases: 441
From: MoscoW
On Forums: 14 years 8 months
Thanks: 7262 time(s)
Russian Federation


Go to the top of the page
  Insert nick Quick quote
+Quote Post

Reply to this topicStart new topic
2 User(s) are reading this topic (2 Guests and 0 Anonymous Users)
0 Members:

 



- Lo-Fi Version Support form
Copyrights and abuse reports form
Time is now: 4th August 2021 - 13:39:51