Welcome Guest ( Log In | Register )

> The Unforclosure - The Sleeper (2016), Symphonic Groove/Power Metal
post Jan 14 2017, 07:44:05
Post #1

Serial Uploader
Group Icon
Group: V.I.P
Posts: 42,365
Releases: 40435
From: Lithuania
On Forums: 15 years 10 months
Thanks: 516391 time(s)
Lithuania


(IMG:http://metalarea.org/images/audiocovers/2017_Jan/acov_tid281881_thumb.jpg)

*Artist: The Unforclosure
*Album: The Sleeper
*Year: 2016
*Genre: Symphonic Groove/Power Metal
*Country: Italy (IMG:http://metalarea.org/forum/style_images/flags/Italy.png)
*Format: mp3@CBR320kbps
*Size: 101MB

Tracklist:
01. Intro 01:53
02. The Sleeper 06:06
03. My dark engage 03:32
04. Deathbad 06:07
05. For Her 05:32
06. Execution day 07:53
07. Dance macabre 05:31
08. Humanity First 05:44
******************************
Total playing time: 42:18



Technical info
(IMG:http://metalarea.org/images/spectrogram/2017_Jan/b9c9bd46ded78d139543f05c404ba556.png)
Input File: 02. The Sleeper.mp3
Channels : 2
Sample Rate : 44100
Precision : 16-bit
Duration : 00:06:05.80 = 16131912 samples = 27435.2 CDDA sectors
File Size : 14.7M
Bit Rate : 322k
Sample Encoding: MPEG audio (layer I, II or III)
Comments :
Title=The Sleeper
Artist=The Unforclosure
Album=The Sleeper
Tracknumber=2/8
Year=2016



Register


Go to the top of the page
  Insert nick Quick quote
+Quote Post
 
Start new topic
Replies (1 - 2)
post Feb 11 2024, 13:58:30
Post #2

Четыре Литра
****
Group: Металариец
Posts: 306
Releases: 0
On Forums: 14 years 10 months
Thanks: 7 time(s)
Russian Federation


Please Reup¡¡¡
Go to the top of the page
  Insert nick Quick quote
+Quote Post
post Feb 11 2024, 16:03:17
Post #3

_ - = # Thrashogolic # = - _ ... а давайте поржём все вместе
**************
Group: Металариец
Posts: 22,180
Releases: 4444
From: 404
On Forums: 13 years 10 months
Thanks: 28971 time(s)
Ukraine


Послушал на bandcamp-е. Для меня какая-то разноголосица инструментов, не понравилось.
Go to the top of the page
  Insert nick Quick quote
+Quote Post

Reply to this topicStart new topic
1 User(s) are reading this topic (1 Guests and 0 Anonymous Users)
0 Members:

 



- Lo-Fi Version Support form
Copyrights and abuse reports form
Time is now: 15th April 2024 - 05:13:10