Welcome Guest ( Log In | Register )

> Sabbat - Live In San Francisconslaugh [live] (2011), Black/Thrash Metal (D)
post Jan 24 2017, 21:51:31
Post #1

Join my religion, or die
**************
Group: Металариец
Posts: 10,392
Releases: 1447
From: Питера
On Forums: 10 years 3 weeks
Thanks: 18438 time(s)
Russian Federation


(IMG:https://metalarea.org/images/audiocovers/2017_Jan/acov_tid282437_thumb.jpg)

*Artist: Sabbat
*Album: Live In San Francisconslaugh [live]
*Year: 2011
*Genre: Black/Thrash Metal
*Country: Japan (IMG:https://metalarea.org/forum/style_images/flags/Japan.png)
*Format: mp3@CBR320kbps
*Size: 163MB

Tracklist:
01 Intro / Prelude of Sabbat
02 Envenom into the Witches Hole
03 Splatter
04 Evil Nations
05 Charisma
06 Dead March / Satan bless you
07 Black Fire
08 Darkness and Evil
09 Mion's Hill
10 Flame on the Circle
11 Deamonic Serenade / Brothers of Demons
12 Gokkanma
13 Plasmas Goat
14 -
******************************
Total playing time: 1:11:54

Technical info
(IMG:https://metalarea.org/images/spectrogram/2017_Jan/036faa96823cf21e5207e87b9abc96e3.png)
Input File: 02 Envenom into the Witches Hole.mp3
Channels : 2
Sample Rate : 48000
Precision : 16-bit
Duration : 00:06:08.07 = 17667216 samples ~ 27605 CDDA sectors
File Size : 14.7M
Bit Rate : 320k
Sample Encoding: MPEG audio (layer I, II or III)
Comments :
Title=Envenom into the Witches Hole
Artist=Sabbat
Album=2011 Live in San Francisconslaught
Tracknumber=02/14
Year=2011
Genre=Black/Thrash Metal



Register


Thanks:
Go to the top of the page
  Insert nick Quick quote
+Quote Post
 
Start new topic
Replies (1 - 1)
post Aug 24 2019, 21:16:36
Post #2

Правь статус, ####!111
**************
Group: Металариец
Posts: 2,284
Releases: 36
On Forums: 1 year 11 months
Thanks: 5248 time(s)
Unknown


Register


Thanks:
Go to the top of the page
  Insert nick Quick quote
+Quote Post

Reply to this topicStart new topic
1 User(s) are reading this topic (1 Guests and 0 Anonymous Users)
0 Members:

 



- Lo-Fi Version Support form
Copyrights and abuse reports form
Time is now: 20th October 2019 - 22:51:52