Welcome Guest ( Log In | Register )

> Decomposed - Decomposed (2012), Old School Death Metal (D)
post Jan 27 2017, 04:55:16
Post #1

Правь статус, ####!111
**************
Group: Металариец
Posts: 27,372
Releases: 19859
From: Г.Харьков
On Forums: 9 years 4 months
Thanks: 400261 time(s)
Unknown


(IMG:http://metalarea.org/images/audiocovers/2017_Jan/acov_tid282552_thumb.jpg)

*Artist: Decomposed
*Album: Decomposed
*Year: 2012
*Genre: Old School Death Metal
*Country: Sweden (IMG:http://metalarea.org/forum/style_images/flags/Sweden.png)
*Format: mp3@CBR320kbps
*Size: 79MB

Tracklist:
1.Stench of Death 02:37
2.Left to Rot 03:33
3.Engulfed in Darkness 03:11
4.Macabre Vision 04:07
5.Ceremonial Slaughter 04:12
6.Infernal Torment 02:10
7.Voices From Beyond 03:22
8.Execution 03:53
9.Ethereal Landscapes 06:19
******************************
Total playing time: 33:24



Technical info
(IMG:http://metalarea.org/images/spectrogram/2017_Jan/f7f32018d81f804cf6257ccfb2513299.png)
Input File: Decomposed - Decomposed - 02 Left to Rot.mp3
Channels : 2
Sample Rate : 44100
Precision : 16-bit
Duration : 00:03:33.96 = 9435724 samples = 16047.1 CDDA sectors
File Size : 8.71M
Bit Rate : 326k
Sample Encoding: MPEG audio (layer I, II or III)
Comments :
Title=Left to Rot
Artist=Decomposed
Album=Decomposed
Tracknumber=2
Year=2015



Register


This post has been edited by DarkHorde: Feb 1 2017, 03:41:22


Go to the top of the page
  Insert nick Quick quote
+Quote Post
 
Start new topic
Replies (1 - 7)
post Jan 27 2017, 10:04:39
Post #2

Going home. Flying high.
**************
Group: Металариец
Posts: 13,481
Releases: 0
From: The Land of Shadows
On Forums: 15 years 1 month
Thanks: 27594 time(s)
Russian Federation


а вот этот дебютник шведов фанам олдухи пропускать не следует!
нет, тут не пахнет каким-то очередным сетевым шедевром, просто сделанный в старом духе материал, без косплея на именитых сотоварищей по стране происхождения (тут, скорее, евро-дэт с некоторым заходом территорию ранних Autopsy или типа того)
Go to the top of the page
  Insert nick Quick quote
+Quote Post
post Jan 28 2017, 18:33:38
Post #3

Morbid Angel
**************
Group: Металариец
Posts: 4,175
Releases: 0
From: Литва г.Клайпеда
On Forums: 14 years 6 months
Thanks: 1814 time(s)
Lithuania




Thanks:
(2) hammer, Storky,
Go to the top of the page
  Insert nick Quick quote
+Quote Post
post Jan 28 2017, 19:39:10
Post #4

Маньяк
**********
Group: Металариец
Posts: 1,089
Releases: 268
From: Ukraine
On Forums: 12 years 6 months
Thanks: 2331 time(s)
Ukraine


прослушал с превеликим удовольствием)
Go to the top of the page
  Insert nick Quick quote
+Quote Post
post Jun 18 2017, 10:43:41
Post #5

Пять Литров
*****
Group: Металариец
Posts: 472
Releases: 0
On Forums: 5 years 1 month
Thanks: 39 time(s)
Unknown


uninspired (IMG:style_emoticons/default/16.gif)
Go to the top of the page
  Insert nick Quick quote
+Quote Post
post Sep 26 2017, 16:48:52
Post #6

Правь статус, ####!111
**************
Group: Металариец
Posts: 49,207
Releases: 869
On Forums: 12 years 3 months
Thanks: 44658 time(s)
Russian Federation


Перезалейте, плиз у кого есть.
Go to the top of the page
  Insert nick Quick quote
+Quote Post
post Sep 27 2017, 23:29:30
Post #7

Пять Литров
*****
Group: Металариец
Posts: 478
Releases: 1
On Forums: 8 years 1 month
Thanks: 1016 time(s)
Unknown


320
Register


Go to the top of the page
  Insert nick Quick quote
+Quote Post
post Jun 16 2018, 10:05:07
Post #8

добрый мизантроп
**************
Group: Металариец
Posts: 2,371
Releases: 1
From: Менск
On Forums: 10 years 10 months
Thanks: 1075 time(s)
Madagascar


mirror
Register


Go to the top of the page
  Insert nick Quick quote
+Quote Post

Reply to this topicStart new topic
2 User(s) are reading this topic (2 Guests and 0 Anonymous Users)
0 Members:

 



- Lo-Fi Version Support form
Copyrights and abuse reports form
Time is now: 20th September 2021 - 21:22:27