Welcome Guest ( Log In | Register )

> Blåkulla - The Immortal Cult (2015), Black Metal
drakul
post Feb 2 2017, 08:28:27
Post #1

Guests team






(IMG:http://metalarea.org/images/audiocovers/2017_Feb/acov_tid282848_thumb.jpg)

*Artist: Blåkulla
*Album: The Immortal Cult
*Year: 2015
*Genre: Black Metal
*Country: France (IMG:http://metalarea.org/forum/style_images/flags/France.png)
*Format: mp3@CBR320kbps
*Size: 113MB

Tracklist:
1. Prelude
2. The Ten Thousand Years Empire
3. Pagan Baptism
4. Eternal Quest
5. Blessed Be The Champion Of Death
6. Hate And Pride
7. Endless Lunar Night
******************************
Total playing time: 49:20

Technical info
(IMG:http://metalarea.org/images/spectrogram/2017_Feb/f4ac2f06ed83cdb34716a2e199c761e7.png)
Input File: 02 The Ten Thousand Years Empire.mp3
Channels : 2
Sample Rate : 44100
Precision : 16-bit
Duration : 00:05:22.87 = 14238655 samples = 24215.4 CDDA sectors
File Size : 12.9M
Bit Rate : 321k
Sample Encoding: MPEG audio (layer I, II or III)
Comments :
Title=The Ten Thousand Years Empire
Artist=BlГҐkulla
Album=The Immortal Cult
Tracknumber=2/7
Year=2015
Genre=Black Metal



Register


Go to the top of the page
  Insert nick Quick quote
+Quote Post
 
Start new topic
Replies (1 - 4)
post Feb 2 2017, 21:30:25
Post #2

Маньяк
**********
Group: Металариец
Posts: 1,024
Releases: 0
From: Vinland
On Forums: 7 years 4 months
Thanks: 1207 time(s)
United States


Дебют был совершенно чумовой -- обладал мощнейшим специфическим звучанием, и был пронизан тотальным мраком.

Надеюсь, этот не разочарует.
Go to the top of the page
  Insert nick Quick quote
+Quote Post
post Feb 4 2017, 02:58:34
Post #3

Правь статус, ####!111
**************
Group: Металариец
Posts: 2,455
Releases: 11
From: Canada
On Forums: 12 years 9 months
Thanks: 1629 time(s)
Canada




Thanks:
Go to the top of the page
  Insert nick Quick quote
+Quote Post
post Feb 6 2017, 10:47:25
Post #4

Going home. Flying high.
**************
Group: Металариец
Posts: 12,966
Releases: 0
From: The Land of Shadows
On Forums: 13 years 7 months
Thanks: 23391 time(s)
Russian Federation


зеркало с дарка
Register


Go to the top of the page
  Insert nick Quick quote
+Quote Post
post Feb 16 2020, 20:56:12
Post #5

Восемь Литров
********
Group: Металариец
Posts: 810
Releases: 117
On Forums: 5 years 8 months
Thanks: 3923 time(s)
Unknown


Register


Go to the top of the page
  Insert nick Quick quote
+Quote Post

Reply to this topicStart new topic
1 User(s) are reading this topic (1 Guests and 0 Anonymous Users)
0 Members:

 



- Lo-Fi Version Support form
Copyrights and abuse reports form
Time is now: 8th April 2020 - 02:44:25