Welcome Guest ( Log In | Register )

> Kozh Dall Division - Kozh Dall Division (2017), Modern Thrash/Death Metal
post Feb 2 2017, 16:12:47
Post #1

Serial Uploader
Group Icon
Group: V.I.P
Posts: 39,314
Releases: 37449
From: Lithuania
On Forums: 14 years 5 months
Thanks: 469550 time(s)
Lithuania


(IMG:http://metalarea.org/images/audiocovers/2017_Feb/acov_tid282872_thumb.jpg)

*Artist: Kozh Dall Division
*Album: Kozh Dall Division
*Year: 2017
*Genre: Modern Thrash/Death Metal
*Country: France (IMG:http://metalarea.org/forum/style_images/flags/France.png)
*Format: mp3@CBR320kbps
*Size: 135MB

Tracklist:
01. Visions D'horreur
02. Squads Of Despair
03. Your Life
04. 13/11/2015
05. Contorted
06. Devoted To Devil
07. A Qui La Faute
08. Amanda Part 1 & Part 2
09. The Night
10. Once Upon A Time In Hell
11. From Dust And Ashes
12. Sanctification
13. Pourquoi
14. Tormented
******************************
Total playing time: 1:04:03



Technical info
(IMG:http://metalarea.org/images/spectrogram/2017_Feb/f5be3b4062bf8916bb53f5ebb16fc0f3.png)
Input File: 02. Squads of Despair (feat. Philippe Ordon).mp3
Channels : 2
Sample Rate : 44100
Precision : 16-bit
Duration : 00:04:23.84 = 11635256 samples = 19787.9 CDDA sectors
File Size : 10.6M
Bit Rate : 323k
Sample Encoding: MPEG audio (layer I, II or III)
Comments :
Title=Squads of Despair (feat. Philippe Ordon)
Artist=Kozh Dall Division
Album=Kozh Dall Division
Tracknumber=2
Genre=Metal
Discnumber=1



Register


Go to the top of the page
  Insert nick Quick quote
+Quote Post
 
Start new topic
Replies (1 - 3)
post Feb 2 2017, 18:16:53
Post #2

Два Литра
**
Group: Завсегдатай
Posts: 143
Releases: 0
On Forums: 15 years 8 months
Thanks: 131 time(s)
Russian Federation




Thanks:
(1) DenisKov,
Go to the top of the page
  Insert nick Quick quote
+Quote Post
post Feb 3 2017, 14:13:46
Post #3

Ъ
**************
Group: Металариец
Posts: 11,110
Releases: 9
On Forums: 13 years 10 months
Thanks: 2237 time(s)
Sweden


Превью местами интересное, только вокал не радует.
Go to the top of the page
  Insert nick Quick quote
+Quote Post
post Nov 12 2021, 14:39:03
Post #4

Правь статус, ####!111
Group Icon
Group: S-moderation team
Posts: 22,058
Releases: 1443
On Forums: 11 years 9 months
Thanks: 114601 time(s)
Unknown


Register


Thanks:
(2) Ingvar, wreak,
Go to the top of the page
  Insert nick Quick quote
+Quote Post

Reply to this topicStart new topic
2 User(s) are reading this topic (2 Guests and 0 Anonymous Users)
0 Members:

 



- Lo-Fi Version Support form
Copyrights and abuse reports form
Time is now: 3rd December 2022 - 17:58:45