Welcome Guest ( Log In | Register )

> Animator - The Venom Within [ep] (2017), Old School Thrash Metal
post Feb 4 2017, 00:33:05
Post #1

Правь статус, ####!111
**************
Group: Металариец
Posts: 30,924
Releases: 22794
From: Г.Харьков
On Forums: 10 years 6 months
Thanks: 477015 time(s)
Unknown


(IMG:http://metalarea.org/images/audiocovers/2017_Feb/acov_tid282952_thumb.jpg)

*Artist: Animator
*Album: The Venom Within [ep]
*Year: 2017
*Genre: Old School Thrash Metal
*Country: Ireland (IMG:http://metalarea.org/forum/style_images/flags/Ireland.png)
*Format: mp3@CBR320kbps
*Size: 50MB

Tracklist:
1. No Consequence 04:29
2. The Venom Within 04:44
3. Sticks and Stones 05:15
4. Throwing It Away 06:04
******************************
Total playing time: 20:32



Technical info
(IMG:http://metalarea.org/images/spectrogram/2017_Feb/2aac988c4a4e6c8ccdd1a04e30dec2a5.png)
Input File: 02 The Venom Within.mp3
Channels : 2
Sample Rate : 44100
Precision : 16-bit
Duration : 00:04:44.79 = 12559107 samples = 21359 CDDA sectors
File Size : 11.6M
Bit Rate : 325k
Sample Encoding: MPEG audio (layer I, II or III)
Comments :
Title=The Venom Within
Artist=Animator
Album=The Venom Within
Tracknumber=2
Year=2017



Register


Go to the top of the page
  Insert nick Quick quote
+Quote Post
 
Start new topic
Replies (1 - 9)
post Feb 4 2017, 06:51:15
Post #2

Dr.
**************
Group: Металариец
Posts: 5,354
Releases: 0
From: Primorye.ru/Hokkaido.jp
On Forums: 11 years 8 months
Thanks: 1115 time(s)
Russian Federation


Часто из сонма групп подобного толка и один раз прослушать полностью альбом не хватает запала. У сих (IMG:style_emoticons/default/20.gif) . В общем, эпиху можно рекомендовать
Go to the top of the page
  Insert nick Quick quote
+Quote Post
post Feb 4 2017, 09:23:31
Post #3

South Of Heaven /адепт ВУДУ
**************
Group: Металариец
Posts: 13,960
Releases: 9
On Forums: 12 years 8 months
Thanks: 5620 time(s)
Unknown


Предыдущее творчество нравилось.
Go to the top of the page
  Insert nick Quick quote
+Quote Post
post Feb 4 2017, 12:00:56
Post #4

Четыре Литра
****
Group: Металариец
Posts: 388
Releases: 0
From: Kyiv
On Forums: 10 years 7 months
Thanks: 159 time(s)
Ukraine


Ингалятор, Асфальтатор...


Thanks:
Go to the top of the page
  Insert nick Quick quote
+Quote Post
post Feb 4 2017, 12:44:01
Post #5

\m/
Group Icon
Group: S-moderation team
Posts: 8,074
Releases: 19
From: Петропавловск-Камчатский
On Forums: 13 years 5 months
Thanks: 8327 time(s)
Russian Federation


Да ну, гадость какая-то. Мегадэтоподобный Аннигилятор (IMG:style_emoticons/default/1488.gif)
Go to the top of the page
  Insert nick Quick quote
+Quote Post
post Feb 4 2017, 15:26:51
Post #6

South Of Heaven /адепт ВУДУ
**************
Group: Металариец
Posts: 13,960
Releases: 9
On Forums: 12 years 8 months
Thanks: 5620 time(s)
Unknown


ЦИТАТА(DarkHorde @ Feb 4 2017, 14:44:01) *
Да ну, гадость какая-то. Мегадэтоподобный Аннигилятор (IMG:style_emoticons/default/1488.gif)

А мне так показалось, что слышу замедленный Танкард (IMG:style_emoticons/default/1488.gif)
Go to the top of the page
  Insert nick Quick quote
+Quote Post
post Feb 4 2017, 22:35:13
Post #7

Going home. Flying high.
**************
Group: Металариец
Posts: 13,609
Releases: 0
From: The Land of Shadows
On Forums: 16 years 3 months
Thanks: 30162 time(s)
Russian Federation


а мне понравилось; воспринимается, как будто сабж - пришельцы из далёкого 1990-го года & (что главное) - без тени неискренности и фальши в творчестве!
так что, если они хотели сделать материал в олдовом духе, то можно с уверенностью констатировать, что затея удалась на все 146% ))


Thanks:
Go to the top of the page
  Insert nick Quick quote
+Quote Post
post Nov 10 2021, 15:38:58    Сейчас играет: Re-up please ;-)
Post #8

Правь статус, ####!111
**************
Group: Металариец
Posts: 2,607
Releases: 0
From: Sofia
On Forums: 15 years 2 months
Thanks: 87 time(s)
Bulgaria


Please re-up (IMG:style_emoticons/default/pray.gif) (IMG:style_emoticons/default/pray.gif)
Go to the top of the page
  Insert nick Quick quote
+Quote Post
post Nov 12 2021, 17:59:39
Post #9

Правь статус, ####!111
Group Icon
Group: S-moderation team
Posts: 22,058
Releases: 1443
On Forums: 11 years 9 months
Thanks: 114601 time(s)
Unknown


Register


Thanks:
Go to the top of the page
  Insert nick Quick quote
+Quote Post
post Nov 12 2021, 20:27:09
Post #10

Правь статус, ####!111
**************
Group: Металариец
Posts: 2,607
Releases: 0
From: Sofia
On Forums: 15 years 2 months
Thanks: 87 time(s)
Bulgaria


Thank you ! (IMG:style_emoticons/default/9.gif) (IMG:style_emoticons/default/9.gif) (IMG:style_emoticons/default/9.gif)

QUOTE(Moldavite @ Nov 12 2021, 16:59:39) *

Go to the top of the page
  Insert nick Quick quote
+Quote Post

Reply to this topicStart new topic
2 User(s) are reading this topic (2 Guests and 0 Anonymous Users)
0 Members:

 



- Lo-Fi Version Support form
Copyrights and abuse reports form
Time is now: 3rd December 2022 - 18:11:13