Welcome Guest ( Log In | Register )

Объявления

* gmail.com упорно продолжает считать почту с нас "unsolicited" и отбивает в том числе и письма активации, поэтому просьба использовать альтернативные почтовые ящики.
------------
* gmail.com continues reject all mail from us as "unsolicited" (activation mails too) therefore please use alternate mail servers.
> Gorevent - Human Garlic Baking [ep] (2016), Brutal Death Metal (D6)
post Feb 6 2017, 20:42:13
Post #1

Аннигилятор пивА
Group Icon
Group: V.I.P
Posts: 52,567
Releases: 16538
From: Koenigsberg - TILZIT
On Forums: 18 years 20 seconds
Thanks: 371943 time(s)
Russian Federation


(IMG:https://metalarea.org/images/audiocovers/2017_Feb/acov_tid283121_thumb.jpg)

*Artist: Gorevent
*Album: Human Garlic Baking [ep]
*Year: 2016
*Genre: Brutal Death Metal
*Country: Japan (IMG:https://metalarea.org/forum/style_images/flags/Japan.png)
*Format: mp3@CBR320kbps
*Size: 25MB

Tracklist:
1. Kill 03:16
2. Human Garlic Baking 03:17
3. Sea of Black Oil 04:12
******************************
Total playing time: 10:45



Extended info
Gokucho - Guitars (2004-2016), Vocals (2016-present) See also: ex-Rest in Gore
Takashi Orikasa - Vocals (2005-2011), Bass (2016-present)
Haruka Kamiyama - Vocals (2012-present) See also: Medic Vomiting Pus, Second Resurrection, Traumatomy
Mick Drums (2014-present) See also: ex-Mandrake, Murder Head, Total Fury, ex-Dreissen
Lusy - Guitars (2015-present) See also: Birth Asphyxia, Slut Needs a Kongamato
Takumi - Guitars (2016-present) See also: ex-Engremxx


Technical info
(IMG:https://metalarea.org/images/spectrogram/2017_Feb/6d42bbb4b46532e082c0cf07fb4928d8.png)
Input File: 02 - Human Garlic Baking.mp3
Channels : 2
Sample Rate : 44100
Precision : 16-bit
Duration : 00:03:16.70 = 8674338 samples = 14752.3 CDDA sectors
File Size : 7.97M
Bit Rate : 324k
Sample Encoding: MPEG audio (layer I, II or III)
Comments :
Title=Human Garlic Baking
Artist=Gorevent
Album=Human Garlic Baking
Tracknumber=02/03
Year=2016
Genre=Slamming Brutal Death Metal
Discnumber=1



Register


Go to the top of the page
  Insert nick Quick quote
+Quote Post
 
Start new topic
Replies (1 - 2)
post Jul 10 2017, 05:13:21
Post #2

Правь статус, ####!111
**************
Group: Металариец
Posts: 4,841
Releases: 29
From: Holland
On Forums: 17 years 10 months
Thanks: 1939 time(s)
Netherlands


Очень круто!
Имхо даже круче полноформата, вышедшего немного ранее. Тут как-то все по-жирнее.
Go to the top of the page
  Insert nick Quick quote
+Quote Post
post Apr 3 2024, 21:01:37
Post #3

:3
**************
Group: Металариец
Posts: 5,128
Releases: 106
On Forums: 16 years 8 months
Thanks: 4302 time(s)
Russian Federation


Register


Thanks:
Go to the top of the page
  Insert nick Quick quote
+Quote Post

Reply to this topicStart new topic
2 User(s) are reading this topic (2 Guests and 0 Anonymous Users)
0 Members:

 



- Lo-Fi Version Support form
Copyrights and abuse reports form
Time is now: 26th May 2024 - 20:04:34