Welcome Guest ( Log In | Register )

Объявления

* gmail.com упорно продолжает считать почту с нас "unsolicited" и отбивает в том числе и письма активации, поэтому просьба использовать альтернативные почтовые ящики.
------------
* gmail.com continues reject all mail from us as "unsolicited" (activation mails too) therefore please use alternate mail servers.
> Decrepit Cadaver - Vórtice A Lo Macabro (2017), Technical Brutal Death Metal
post Feb 9 2017, 06:01:55
Post #1

Аннигилятор пивА
Group Icon
Group: V.I.P
Posts: 52,568
Releases: 16538
From: Koenigsberg - TILZIT
On Forums: 18 years 2 weeks
Thanks: 371989 time(s)
Russian Federation


(IMG:https://metalarea.org/images/audiocovers/2017_Feb/acov_tid283210_thumb.jpg)

*Artist: Decrepit Cadaver
*Album: Vórtice A Lo Macabro
*Year: 2017
*Genre: Technical Brutal Death Metal
*Country: Chile (IMG:https://metalarea.org/forum/style_images/flags/Chile.png)
*Format: mp3@CBR320kbps
*Size: 60MB

Tracklist:
1. Corrupción De La Carne 03:54
2. La Hecamtombe De Ammyt 03:23
3. Desmembramiento Carnívoro 03:13
4. Vórtice Macabro 04:12
5. Emanación Pestilente De Torsos Putrefactos 03:41
6. Divinidad Profanada 03:38
7. Degradación 02:47
******************************
Total playing time: 24:48




Extended info
Christian Lancellotti / Bass
Elias Carmona / Vocals
Christian Rojas / Drums (Voodoo, ex-Demonios, ex-Infernal Doom)
Jorge Reynaud / Guitars



Technical info
(IMG:https://metalarea.org/images/spectrogram/2017_Feb/f8946dd69de6984ff36830ac2be30664.png)
Input File: 03 Desmembramiento Carnívoro.mp3
Channels : 2
Sample Rate : 44100
Precision : 16-bit
Duration : 00:03:13.56 = 8536084 samples = 14517.1 CDDA sectors
File Size : 8.55M
Bit Rate : 353k
Sample Encoding: MPEG audio (layer I, II or III)
Comments :
Title=Desmembramiento CarnГ­voro
Artist=Decrepit Cadaver
Album=VГіrtice a lo Macabro
Tracknumber=3
Year=2017
Genre=Death Metal



Register


Go to the top of the page
  Insert nick Quick quote
+Quote Post
 
Start new topic
Replies (1 - 6)
post Feb 9 2017, 10:14:28
Post #2

Аннигилятор пивА
Group Icon
Group: V.I.P
Posts: 52,568
Releases: 16538
From: Koenigsberg - TILZIT
On Forums: 18 years 2 weeks
Thanks: 371989 time(s)
Russian Federation


отличное жыырное мясо, где-то на стыке саффокейшен и каннибалов, местами мозг конкретно кипит
Go to the top of the page
  Insert nick Quick quote
+Quote Post
post Feb 9 2017, 13:00:46
Post #3

Empty Words
**************
Group: Металариец
Posts: 2,114
Releases: 13
From: Москва
On Forums: 14 years 9 months
Thanks: 2938 time(s)
Russian Federation


ЦИТАТА(aesteticvice @ Feb 9 2017, 12:14:28) *
отличное жыырное мясо, где-то на стыке саффокейшен и каннибалов, местами мозг конкретно кипит

Да обычный брутал с заезженными ходами, отчего тут кипеть — я ХЗ. Такое ощущение, что все эти группы играют одну и ту же песню.
Go to the top of the page
  Insert nick Quick quote
+Quote Post
post Feb 9 2017, 13:40:51
Post #4

Аннигилятор пивА
Group Icon
Group: V.I.P
Posts: 52,568
Releases: 16538
From: Koenigsberg - TILZIT
On Forums: 18 years 2 weeks
Thanks: 371989 time(s)
Russian Federation


ЦИТАТА(samokot @ Feb 9 2017, 12:00:46) *
Да обычный брутал с заезженными ходами, отчего тут кипеть — я ХЗ. Такое ощущение, что все эти группы играют одну и ту же песню.

попробуй другой жанр, иногда помогает (IMG:style_emoticons/default/1488.gif)


Thanks:
(1) samokot,
Go to the top of the page
  Insert nick Quick quote
+Quote Post
post Feb 9 2017, 23:15:24
Post #5

Going home. Flying high.
**************
Group: Металариец
Posts: 13,612
Releases: 0
From: The Land of Shadows
On Forums: 17 years 9 months
Thanks: 32951 time(s)
Russian Federation


да тут весь альбом - как одна песня)) я бы не назвал это чем-то выдающимся, но записано хорошо. если прокатит - то почти полчаса кайфа обеспечено! хотя, честно говоря, лично я лучше в очередной раз "Effigy Of The Forgotten" переслушаю.


Thanks:
Go to the top of the page
  Insert nick Quick quote
+Quote Post
post May 21 2017, 08:49:10
Post #6

a caress of pale light
**************
Group: Металариец
Posts: 8,698
Releases: 13
On Forums: 14 years 7 months
Thanks: 4463 time(s)
Unknown


ЦИТАТА(aesteticvice @ 9th February 2017 - 12:14:28) *
где-то на стыке саффокейшен и каннибалов

мне старый Диренжд вспомнился. Понравилось.
Go to the top of the page
  Insert nick Quick quote
+Quote Post
post May 14 2020, 14:37:35
Post #7

Full-of-Hate
**************
Group: Металариец
Posts: 5,779
Releases: 0
From: Moscow
On Forums: 14 years 11 months
Thanks: 7120 time(s)
Russian Federation


Инструментально - вери гуд. Вокал... такое ощущение, что певец ртом подавился в момент приступа острого кашля.
Увы, весь альбом прочихали и прокашляли.
А могло быть круто.
Go to the top of the page
  Insert nick Quick quote
+Quote Post

Reply to this topicStart new topic
1 User(s) are reading this topic (1 Guests and 0 Anonymous Users)
0 Members:

 



- Lo-Fi Version Support form
Copyrights and abuse reports form
Time is now: 13th June 2024 - 05:18:09